Подкидыш / Перебежчик / The Changeling (Питер Медак / Peter Medak) [1980, Канада, ужасы, мистика, HDTVRip 720p] DVO (НТВ+) + VO (Максим Логинофф) + Sub Eng + Original Eng

Ответить на тему
 
Автор Сообщение

user ®

Стаж: 7 лет 7 месяцев

Сообщений: 20008

Пост Пост: #1 от 04-Фев-2015 19:06

[Цитировать]

Подкидыш / Перебежчик / The Changeling
-Страна: Канада
Жанр: ужасы, мистика
Год выпуска: 1980
Продолжительность: 01:46:41-Перевод 1: Профессиональный (двухголосый, закадровый) НТВ+
Перевод 2: Одноголосый закадровый Максим Логинофф
Cубтитры: английские
Оригинальная аудиодорожка: английский-Режиссер: Питер Медак / Peter Medak-В ролях: Джин Марш, Джон Коликос, Джордж С. Скотт, Мелвин Дуглас, Триш Ван Девер-Описание: Джон Расселл, композитор и профессор музыки, потерял при трагических обстоятельствах своих жену и дочь. В поисках утешения он переезжает в старое поместье, в котором на протяжении двадцати лет никто не жил. Однако у Джона складывается впечатление, что в доме кто-то есть и этот кто-то - ребенок, пытающийся посвятить его в какую-то тайну. Джон решает исследовать историю этого дома и узнает ужасный секрет...-Сэмпл: Скачать-Тип релиза: HDTVRip 720p
Контейнер: MKV-Видео: 1256x720 (16:9); 4321 Kbps; 23.976 fps; 0.199 bpp
Аудио 1: Russian; AC3; 48.0 KHz; 2ch; 192 Kbps DVO
Аудио 2: Russian; AC3; 48.0 KHz; 2ch; 192 Kbps VO
Аудио 3: English; AC3; 48.0 KHz; 2ch; 192 Kbps
Формат субтитров: softsub (SRT)
MediaInfo
Format : Matroska
Format version : Version 4 / Version 2
File size : 3.65 GiB
Duration : 1h 46mn
Overall bit rate : 4 902 Kbps
Encoded date : UTC 2015-02-01 05:02:30
Writing application : mkvmerge v7.2.0 ('On Every Street') 64bit built on Sep 13 2014 15:52:10
Writing library : libebml v1.3.0 + libmatroska v1.4.1
Attachements : TheChangeling1.jpg / TheChangeling2.jpg / TheChangeling3.jpg / TheChangeling4.jpg / AlFinalDeLaEscalera.jpg
DURATION : 01:46:41.248000000
NUMBER_OF_FRAMES : 200039
NUMBER_OF_BYTES : 153629952
_STATISTICS_WRITING_APP : mkvmerge v7.2.0 ('On Every Street') 64bit built on Sep 13 2014 15:52:10
_STATISTICS_WRITING_DATE_UTC : 2015-02-01 05:02:30
_STATISTICS_TAGS : BPS DURATION NUMBER_OF_FRAMES NUMBER_OF_BYTES
Video
ID : 1
Format : AVC
Format/Info : Advanced Video Codec
Format profile : High@L4.1
Format settings, CABAC : Yes
Format settings, ReFrames : 9 frames
Codec ID : V_MPEG4/ISO/AVC
Duration : 1h 46mn
Bit rate : 4 321 Kbps
Width : 1 256 pixels
Height : 720 pixels
Display aspect ratio : 16:9
Frame rate mode : Constant
Frame rate : 23.976 fps
Color space : YUV
Chroma subsampling : 4:2:0
Bit depth : 8 bits
Scan type : Progressive
Bits/(Pixel*Frame) : 0.199
Stream size : 3.15 GiB (86%)
Writing library : x264 core 133 r2334 a3ac64b
Encoding settings : cabac=1 / ref=9 / deblock=1:-2:-2 / analyse=0x3:0x133 / me=umh / subme=10 / psy=1 / psy_rd=1.00:0.25 / mixed_ref=1 / me_range=24 / chroma_me=1 / trellis=2 / 8x8dct=1 / cqm=0 / deadzone=6,6 / fast_pskip=1 / chroma_qp_offset=-4 / threads=6 / lookahead_threads=1 / sliced_threads=0 / nr=0 / decimate=0 / interlaced=0 / bluray_compat=0 / constrained_intra=0 / bframes=8 / b_pyramid=2 / b_adapt=2 / b_bias=0 / direct=3 / weightb=1 / open_gop=0 / weightp=2 / keyint=250 / keyint_min=23 / scenecut=40 / intra_refresh=0 / rc_lookahead=60 / rc=2pass / mbtree=1 / bitrate=4321 / ratetol=1.0 / qcomp=0.80 / qpmin=0 / qpmax=69 / qpstep=4 / cplxblur=20.0 / qblur=0.5 / ip_ratio=1.10 / aq=1:0.50
Language : English
Default : Yes
Forced : No
DURATION : 01:46:41.437000000
NUMBER_OF_FRAMES : 153481
NUMBER_OF_BYTES : 3458139017
_STATISTICS_WRITING_APP : mkvmerge v7.2.0 ('On Every Street') 64bit built on Sep 13 2014 15:52:10
_STATISTICS_WRITING_DATE_UTC : 2015-02-01 05:02:30
_STATISTICS_TAGS : BPS DURATION NUMBER_OF_FRAMES NUMBER_OF_BYTES
Audio #1
ID : 2
Format : AC-3
Format/Info : Audio Coding 3
Mode extension : CM (complete main)
Format settings, Endianness : Big
Codec ID : A_AC3
Duration : 1h 46mn
Bit rate mode : Constant
Bit rate : 192 Kbps
Channel(s) : 2 channels
Channel positions : Front: L R
Sampling rate : 48.0 KHz
Bit depth : 16 bits
Compression mode : Lossy
Stream size : 147 MiB (4%)
Title : DVO НТВ+
Language : Russian
Default : Yes
Forced : No
Audio #2
ID : 3
Format : AC-3
Format/Info : Audio Coding 3
Mode extension : CM (complete main)
Format settings, Endianness : Big
Codec ID : A_AC3
Duration : 1h 46mn
Bit rate mode : Constant
Bit rate : 192 Kbps
Channel(s) : 2 channels
Channel positions : Front: L R
Sampling rate : 48.0 KHz
Bit depth : 16 bits
Compression mode : Lossy
Stream size : 147 MiB (4%)
Title : AVO Максим Логинофф
Language : Russian
Default : No
Forced : No
Audio #3
ID : 4
Format : AC-3
Format/Info : Audio Coding 3
Format profile : Dolby Digital
Mode extension : CM (complete main)
Format settings, Endianness : Big
Codec ID : A_AC3
Duration : 1h 46mn
Bit rate mode : Constant
Bit rate : 192 Kbps
Channel(s) : 2 channels
Channel positions : Front: L R
Sampling rate : 48.0 KHz
Bit depth : 16 bits
Compression mode : Lossy
Stream size : 147 MiB (4%)
Language : English
Default : No
Forced : No
Text
ID : 5
Format : UTF-8
Codec ID : S_TEXT/UTF8
Codec ID/Info : UTF-8 Plain Text
Language : English
Default : No
Forced : No
Menu
00:00:00.000 : en:Chapter 01
00:05:15.667 : en:Chapter 02
00:12:10.501 : en:Chapter 03
00:17:06.668 : en:Chapter 04
00:27:40.835 : en:Chapter 05
00:29:22.335 : en:Chapter 06
00:39:28.502 : en:Chapter 07
00:45:05.169 : en:Chapter 08
00:52:30.336 : en:Chapter 09
01:00:31.369 : en:Chapter 10
01:07:05.502 : en:Chapter 11
01:11:22.169 : en:Chapter 12
01:14:14.202 : en:Chapter 13
01:20:19.036 : en:Chapter 14
01:26:05.336 : en:Chapter 15
01:33:47.670 : en:Chapter 16
01:46:35.004 : en:Chapter 17
Скриншоты
Скачать

Скачать торрент!

Как скачивать? · Что такое торрент? · Рейтинг и ограничения

Сайт не распространяет и не хранит электронные версии произведений, а лишь предоставляет доступ к создаваемому пользователями каталогу ссылок на торрент-файлы, которые содержат только списки хеш-сумм

[Профиль] [ЛС]
Показать сообщения:    
Ответить на тему

Текущее время: Сегодня 17:51

Часовой пояс: GMT + 4



Вы не можете начинать темы
Вы не можете отвечать на сообщения
Вы не можете редактировать свои сообщения
Вы не можете удалять свои сообщения
Вы не можете голосовать в опросах
Вы не можете прикреплять файлы к сообщениям
Вы не можете скачивать файлы