Прости за любовь / Perdona si te llamo amor (Хоакин Льямас / Joaquín Llamas) [2014, Испания, Мелодрама, BDRip 720p] Dub (iTunes) + Original Spa

Ответить на тему
 
Автор Сообщение

user ®

Стаж: 7 лет 7 месяцев

Сообщений: 20008

Пост Пост: #1 от 04-Фев-2015 19:06

[Цитировать]

Прости за любовь / Perdona si te llamo amor
Страна: Испания
Жанр: Мелодрама
Год выпуска: 2014
Продолжительность: 01:59:56
Перевод: Профессиональный (дублированный) iTunes
Cубтитры: нет
Оригинальная аудиодорожка: испанский
Режиссер: Хоакин Льямас / Joaquín Llamas
В ролях: Алехандро Батльори, Палома Блойд, Джоэль Боскед, Кристина Брондо, Пабло Чьяпелья, Адрия Кольядо, Хан Корнет, Ракель Дальмасес, Аурели дель Позо, Лусия Дельгадо
Описание: Спокойный представительный Алекс знакомится со взбалмошной Никки. Несмотря на то, что они полные противоположности и постоянно ссорятся, Алекс и Никки начинают встречаться. Но проблема не только в непохожих характерах, главная заминка в 20-летней разнице в возрасте — ему 37, а ей 17.
Доп.информация: За предоставленный Blu-Ray диск благодарность 'L.

Тип релиза: BDRip 720p
Контейнер: MKV
Видео: MPEG-4 AVC, 6261 Kбит/с, 1280x536, 24,000 fps
Аудио: Rus, AC3, 384 kb/s (6 ch), 48 kHz
Аудио 2: Spa, DTS, 1510 kb/s (6 ch), 48 kHz
MediaInfo
x264 [info]: frame I:1138 Avg QP:10.95 size:119169
x264 [info]: frame P:36947 Avg QP:12.18 size: 63036
x264 [info]: frame B:134630 Avg QP:13.75 size: 24619
x264 [info]: consecutive B-frames: 1.7% 2.1% 9.1% 18.6% 16.1% 44.2% 3.6% 2.6% 0.7% 0.3% 0.4% 0.4% 0.3%
Format : Matroska
Format version : Version 4 / Version 2
File size : 6.97 GiB
Duration : 1h 59mn
Overall bit rate : 8 319 Kbps
Movie name : Tonik
Encoded date : UTC 2015-02-03 04:03:35
Writing application : mkvmerge v7.1.0 ('Good Love') 64bit built on Jul 27 2014 13:06:55
Writing library : libebml v1.3.0 + libmatroska v1.4.1
_STATISTICS_WRITING_APP : mkvmerge v7.1.0 ('Good Love') 64bit built on Jul 27 2014 13:06:55
_STATISTICS_WRITING_DATE_UTC : 2015-02-03 04:03:35
_STATISTICS_TAGS : BPS DURATION NUMBER_OF_FRAMES NUMBER_OF_BYTES
DURATION : 01:59:54.315000000
NUMBER_OF_FRAMES : 674467
NUMBER_OF_BYTES : 1357027672
Video
ID : 1
Format : AVC
Format/Info : Advanced Video Codec
Format profile : High@L4.1
Format settings, CABAC : Yes
Format settings, ReFrames : 12 frames
Codec ID : V_MPEG4/ISO/AVC
Duration : 1h 59mn
Bit rate : 6 261 Kbps
Width : 1 280 pixels
Height : 536 pixels
Display aspect ratio : 2.40:1
Frame rate mode : Constant
Frame rate : 24.000 fps
Color space : YUV
Chroma subsampling : 4:2:0
Bit depth : 8 bits
Scan type : Progressive
Bits/(Pixel*Frame) : 0.380
Stream size : 5.24 GiB (75%)
Title : Tonik
Writing library : x264 core 144 r2525 40bb568
Encoding settings : cabac=1 / ref=12 / deblock=1:-3:-3 / analyse=0x3:0x133 / me=umh / subme=11 / psy=1 / psy_rd=1.00:0.00 / mixed_ref=1 / me_range=48 / chroma_me=1 / trellis=2 / 8x8dct=1 / cqm=0 / deadzone=21,11 / fast_pskip=0 / chroma_qp_offset=-2 / threads=12 / lookahead_threads=3 / sliced_threads=0 / nr=0 / decimate=1 / interlaced=0 / bluray_compat=0 / constrained_intra=0 / bframes=12 / b_pyramid=2 / b_adapt=2 / b_bias=0 / direct=1 / weightb=1 / open_gop=0 / weightp=2 / keyint=250 / keyint_min=24 / scenecut=40 / intra_refresh=0 / rc=crf / mbtree=0 / crf=14.0 / qcomp=0.60 / qpmin=0 / qpmax=69 / qpstep=4 / ip_ratio=1.40 / pb_ratio=1.30 / aq=1:1.00
Language : English
Default : Yes
Forced : No
DURATION : 01:59:56.459000000
NUMBER_OF_FRAMES : 172715
NUMBER_OF_BYTES : 5779113827
_STATISTICS_WRITING_APP : mkvmerge v7.1.0 ('Good Love') 64bit built on Jul 27 2014 13:06:55
_STATISTICS_WRITING_DATE_UTC : 2015-02-03 04:03:35
_STATISTICS_TAGS : BPS DURATION NUMBER_OF_FRAMES NUMBER_OF_BYTES
Audio #1
ID : 2
Format : AC-3
Format/Info : Audio Coding 3
Mode extension : CM (complete main)
Format settings, Endianness : Big
Codec ID : A_AC3
Duration : 1h 59mn
Bit rate mode : Constant
Bit rate : 384 Kbps
Channel(s) : 6 channels
Channel positions : Front: L C R, Side: L R, LFE
Sampling rate : 48.0 KHz
Bit depth : 16 bits
Compression mode : Lossy
Stream size : 329 MiB (5%)
Title : iTunes
Language : Russian
Default : Yes
Forced : No
Audio #2
ID : 3
Format : DTS
Format/Info : Digital Theater Systems
Mode : 16
Format settings, Endianness : Big
Codec ID : A_DTS
Duration : 1h 59mn
Bit rate mode : Constant
Bit rate : 1 509 Kbps
Channel(s) : 6 channels
Channel positions : Front: L C R, Side: L R, LFE
Sampling rate : 48.0 KHz
Bit depth : 16 bits
Compression mode : Lossy
Stream size : 1.26 GiB (18%)
Language : Spanish
Default : No
Forced : No
Скриншоты
Скачать

Скачать торрент!

Как скачивать? · Что такое торрент? · Рейтинг и ограничения

Сайт не распространяет и не хранит электронные версии произведений, а лишь предоставляет доступ к создаваемому пользователями каталогу ссылок на торрент-файлы, которые содержат только списки хеш-сумм

[Профиль] [ЛС]
Показать сообщения:    
Ответить на тему

Текущее время: Сегодня 18:31

Часовой пояс: GMT + 4



Вы не можете начинать темы
Вы не можете отвечать на сообщения
Вы не можете редактировать свои сообщения
Вы не можете удалять свои сообщения
Вы не можете голосовать в опросах
Вы не можете прикреплять файлы к сообщениям
Вы не можете скачивать файлы