Восставший из ада / Hellraiser (Клайв Баркер / Clive Barker) [1987, Великобритания, ужасы, триллер, BDRip 1080p] MVO (R5) + 4x DVO + 6x AVO + VO + Original Eng + Sub Rus, Eng, Ukr

Ответить на тему
 
Автор Сообщение

user ®

Стаж: 7 лет 7 месяцев

Сообщений: 20008

Пост Пост: #1 от 04-Фев-2015 19:06

[Цитировать]

Восставший из ада / Hellraiser- Год выпуска: 1987
Выпущено: Великобритания
Жанр: ужасы, триллер
Продолжительность: 01:33:23
Перевод: Профессиональный (многоголосый, закадровый) R5
+ Профессиональный (двухголосый, закадровый) П.Гланц и И.Королева
+ Профессиональный (двухголосый, закадровый) Екатеринбург Арт
+ Профессиональный (двухголосый, закадровый) НТВ
+ Профессиональный (двухголосый, закадровый)
+ Авторский одноголосый А.Гаврилов
+ Авторский одноголосый А.Гаврилов (ранний)
+ Авторский одноголосый В.Дохалов
+ Авторский одноголосый Ю.Живов
+ Авторский одноголосый В.Горчаков (исп.1)
+ Авторский одноголосый В.Горчаков (исп.2)
+ Одноголосый закадровый М.Ошурков
Оригинальная звуковая дорожка: English
Субтитры: Русские (х3), English, Ukrainian-Режиссер: Клайв Баркер / Clive Barker
В ролях: Эндрю Робинсон, Клэр Хиггинс, Эшли Лоуренс, Шон Чэпман, Оливер Смит, Роберт Хайнс, Энтони Аллен, Леон Дэвис, Майкл Кэссиди, Фрэнк Бэйкер
О фильме: Расставив вокруг себя зажженные свечи, Френк открывает купленную им на восточном базаре старинную шкатулку. Легенда гласит, что живущие в ней демоны могут доставить владельцу неописуемые наслаждения. Но Френк не мог и предположить, что эта шкатулка ключ к воротам из ада…-SbR!
Релиз:
Формат: MKV
Видео: 1920x1040 at 23.976 fps, x264@L4.1, ~18603 kbps
Аудио #01: Russian: 48 kHz, DTS 5.1, ~1509 kbps |Многоголосый закадровый, R5|
Аудио #02: Russian: 48 kHz, DTS 5.1, ~1509 kbps |Двухголосый закадровый, П. Гланц и И. Королева|
Аудио #03: Russian: 48 kHz, DTS 5.1, ~1509 kbps |Одноголосый закадровый, A. Гаврилов|
Аудио #04: Russian: 48 kHz, DTS 5.1, ~1509 kbps |Одноголосый закадровый, В. Дохалов|
Аудио #05: Russian: 48 kHz, AC3, 2/0 (L,R) ch, ~192 kbps |Двухголосый закадровый, Екатеринбург Арт|
Аудио #06: Russian: 48 kHz, AC3, 2/0 (L,R) ch, ~192 kbps |Двухголосый закадровый, НТВ|
Аудио #07: Russian: 48 kHz, AC3, 3/2 (L,C,R,l,r) + LFE ch, ~448 kbps |Двухголосый закадровый|
Аудио #08: Russian: 48 kHz, AC3, 2/0 (L,R) ch, ~192 kbps |Одноголосый закадровый, Ю. Живов|
Аудио #09: Russian: 48 kHz, AC3, 2/0 (L,R) ch, ~192 kbps |Одноголосый закадровый, A. Гаврилов (ранний)|
Аудио #10: Russian: 48 kHz, AC3, 2/0 (L,R) ch, ~192 kbps |Одноголосый закадровый, В. Горчаков 1|
Аудио #11: Russian: 48 kHz, AC3, 3/2 (L,C,R,l,r) + LFE ch, ~384 kbps |Одноголосый закадровый, В. Горчаков 2|
Аудио #12: Russian: 48 kHz, AC3, 2/0 (L,R) ch, ~192 kbps |Одноголосый закадровый, М. Ошурков|
Аудио #13: English: 48 kHz, DTS 5.1, ~1509 kbps
Семпл-Source vs Encode
-
mInfo
Формат : Matroska
Версия формата : Version 4 / Version 2
Размер файла : 18,4 Гбайт
Продолжительность : 1 ч. 33 м.
Общий поток : 28,1 Мбит/сек
Название фильма : Hellraiser (1987) - Release for HDCLUB by SbR
Дата кодирования : UTC 2014-08-06 04:51:02
Программа кодирования : mkvmerge v7.1.0 ('Good Love') 64bit built on Jul 27 2014 13:06:55
Библиотека кодирования : libebml v1.3.0 + libmatroska v1.4.1
DURATION : 01:33:22.592000000
NUMBER_OF_FRAMES : 175081
NUMBER_OF_BYTES : 134462208
_STATISTICS_WRITING_APP : mkvmerge v7.1.0 ('Good Love') 64bit built on Jul 27 2014 13:06:55
_STATISTICS_WRITING_DATE_UTC : 2014-08-06 04:51:02
_STATISTICS_TAGS : BPS DURATION NUMBER_OF_FRAMES NUMBER_OF_BYTES
Attachment : Yes / Yes
Видео
Идентификатор : 1
Формат : AVC
Формат/Информация : Advanced Video Codec
Профиль формата : High@L4.1
Параметр CABAC формата : Да
Параметр ReFrames формата : 4 кадра
Идентификатор кодека : V_MPEG4/ISO/AVC
Продолжительность : 1 ч. 33 м.
Битрейт : 18,1 Мбит/сек
Ширина : 1920 пикселей
Высота : 1040 пикселей
Соотношение сторон : 1,85:1
Режим частоты кадров : Постоянный
Частота кадров : 23,976 кадра/сек
Цветовое пространство : YUV
Субдискретизация насыщенности : 4:2:0
Битовая глубина : 8 бит
Тип развёртки : Прогрессивная
Бит/(Пиксели*Кадры) : 0.377
Размер потока : 11,8 Гбайт (64%)
Заголовок : Release for HDCLUB
Библиотека кодирования : x264 core 142 r2431+42 c69a006 tMod [8-bit@4:2:0 X86_64]
Настройки программы : cabac=1 / ref=4 / deblock=1:-2:-2 / analyse=0x3:0x133 / me=umh / subme=11 / psy=1 / fade_compensate=0.00 / psy_rd=1.00:0.00 / mixed_ref=1 / me_range=32 / chroma_me=1 / trellis=2 / 8x8dct=1 / cqm=0 / deadzone=21,11 / fast_pskip=1 / chroma_qp_offset=-2 / threads=12 / lookahead_threads=3 / sliced_threads=0 / nr=0 / decimate=1 / interlaced=0 / bluray_compat=0 / constrained_intra=0 / fgo=0 / bframes=10 / b_pyramid=2 / b_adapt=2 / b_bias=0 / direct=1 / weightb=1 / open_gop=0 / weightp=2 / keyint=250 / keyint_min=23 / scenecut=40 / intra_refresh=0 / rc_lookahead=60 / rc=crf / mbtree=0 / crf=19.5000 / qcomp=0.60 / qpmin=0:0:0 / qpmax=69:69:69 / qpstep=4 / vbv_maxrate=62500 / vbv_bufsize=78125 / crf_max=0.0 / nal_hrd=none / filler=0 / ip_ratio=1.40 / pb_ratio=1.10 / aq=4:0.70 / aq-sensitivity=11.00 / aq-factor=1.00:1.00:1.00 / aq2=1:0.60 / aq2-sensitivity=9.00 / aq2-factor=1.00:1.00:1.00 / aq3=1:[0.60:0.60]:[0.60:0.60]:[0.60:0.60]:[0.60:0.60] / aq3-sensitivity=10.00 / aq3-factor=[1.00:1.00]:[1.00:1.00]:[1.00:1.00] / aq3-boundary=192:64:24
Язык : English
Default : Да
Forced : Нет
Основные цвета : BT.709
Характеристики трансфера : BT.709
Коэффициенты матрицы : BT.709
Аудио #1
Идентификатор : 2
Формат : DTS
Формат/Информация : Digital Theater Systems
Режим : 16
Параметр Endianness формата : Big
Идентификатор кодека : A_DTS
Продолжительность : 1 ч. 33 м.
Вид битрейта : Постоянный
Битрейт : 1509 Кбит/сек
Каналы : 6 каналов
Расположение каналов : Front: L C R, Side: L R, LFE
Частота : 48,0 КГц
Битовая глубина : 16 бит
Метод сжатия : С потерями
Размер потока : 1008 Мбайт (5%)
Заголовок : MVO, R5
Язык : Russian
Default : Да
Forced : Нет
Аудио #2
Идентификатор : 3
Формат : DTS
Формат/Информация : Digital Theater Systems
Режим : 16
Параметр Endianness формата : Big
Идентификатор кодека : A_DTS
Продолжительность : 1 ч. 33 м.
Вид битрейта : Постоянный
Битрейт : 1509 Кбит/сек
Каналы : 6 каналов
Расположение каналов : Front: L C R, Side: L R, LFE
Частота : 48,0 КГц
Битовая глубина : 16 бит
Метод сжатия : С потерями
Размер потока : 1008 Мбайт (5%)
Заголовок : DVO, Гланц и Королёва
Язык : Russian
Default : Нет
Forced : Нет
Аудио #3
Идентификатор : 4
Формат : DTS
Формат/Информация : Digital Theater Systems
Режим : 16
Параметр Endianness формата : Big
Идентификатор кодека : A_DTS
Продолжительность : 1 ч. 33 м.
Вид битрейта : Постоянный
Битрейт : 1509 Кбит/сек
Каналы : 6 каналов
Расположение каналов : Front: L C R, Side: L R, LFE
Частота : 48,0 КГц
Битовая глубина : 16 бит
Метод сжатия : С потерями
Размер потока : 1008 Мбайт (5%)
Заголовок : VO, Гаврилов
Язык : Russian
Default : Нет
Forced : Нет
Аудио #4
Идентификатор : 5
Формат : DTS
Формат/Информация : Digital Theater Systems
Режим : 16
Параметр Endianness формата : Big
Идентификатор кодека : A_DTS
Продолжительность : 1 ч. 33 м.
Вид битрейта : Постоянный
Битрейт : 1509 Кбит/сек
Каналы : 6 каналов
Расположение каналов : Front: L C R, Side: L R, LFE
Частота : 48,0 КГц
Битовая глубина : 16 бит
Метод сжатия : С потерями
Размер потока : 1008 Мбайт (5%)
Заголовок : VO, Дохалов
Язык : Russian
Default : Нет
Forced : Нет
Аудио #5
Идентификатор : 6
Формат : AC-3
Формат/Информация : Audio Coding 3
Расширение режима : CM (complete main)
Параметр Endianness формата : Big
Идентификатор кодека : A_AC3
Продолжительность : 1 ч. 33 м.
Вид битрейта : Постоянный
Битрейт : 192 Кбит/сек
Каналы : 2 канала
Расположение каналов : Front: L R
Частота : 48,0 КГц
Битовая глубина : 16 бит
Метод сжатия : С потерями
Размер потока : 128 Мбайт (1%)
Заголовок : DVO, Екатеринбург Арт
Язык : Russian
Default : Нет
Forced : Нет
Аудио #6
Идентификатор : 7
Формат : AC-3
Формат/Информация : Audio Coding 3
Расширение режима : CM (complete main)
Параметр Endianness формата : Big
Идентификатор кодека : A_AC3
Продолжительность : 1 ч. 33 м.
Вид битрейта : Постоянный
Битрейт : 192 Кбит/сек
Каналы : 2 канала
Расположение каналов : Front: L R
Частота : 48,0 КГц
Битовая глубина : 16 бит
Метод сжатия : С потерями
Размер потока : 128 Мбайт (1%)
Заголовок : DVO, НТВ
Язык : Russian
Default : Нет
Forced : Нет
Аудио #7
Идентификатор : 8
Формат : AC-3
Формат/Информация : Audio Coding 3
Расширение режима : CM (complete main)
Параметр Endianness формата : Big
Идентификатор кодека : A_AC3
Продолжительность : 1 ч. 33 м.
Вид битрейта : Постоянный
Битрейт : 448 Кбит/сек
Каналы : 6 каналов
Расположение каналов : Front: L C R, Side: L R, LFE
Частота : 48,0 КГц
Битовая глубина : 16 бит
Метод сжатия : С потерями
Размер потока : 299 Мбайт (2%)
Заголовок : DVO
Язык : Russian
Default : Нет
Forced : Нет
Аудио #8
Идентификатор : 9
Формат : AC-3
Формат/Информация : Audio Coding 3
Расширение режима : CM (complete main)
Параметр Endianness формата : Big
Идентификатор кодека : A_AC3
Продолжительность : 1 ч. 33 м.
Вид битрейта : Постоянный
Битрейт : 192 Кбит/сек
Каналы : 2 канала
Расположение каналов : Front: L R
Частота : 48,0 КГц
Битовая глубина : 16 бит
Метод сжатия : С потерями
Размер потока : 128 Мбайт (1%)
Заголовок : VO, Живов
Язык : Russian
Default : Нет
Forced : Нет
Аудио #9
Идентификатор : 10
Формат : AC-3
Формат/Информация : Audio Coding 3
Расширение режима : CM (complete main)
Параметр Endianness формата : Big
Идентификатор кодека : A_AC3
Продолжительность : 1 ч. 33 м.
Вид битрейта : Постоянный
Битрейт : 192 Кбит/сек
Каналы : 2 канала
Расположение каналов : Front: L R
Частота : 48,0 КГц
Битовая глубина : 16 бит
Метод сжатия : С потерями
Размер потока : 128 Мбайт (1%)
Заголовок : VO, Гаврилов (old)
Язык : Russian
Default : Нет
Forced : Нет
Аудио #10
Идентификатор : 11
Формат : AC-3
Формат/Информация : Audio Coding 3
Расширение режима : CM (complete main)
Параметр Endianness формата : Big
Идентификатор кодека : A_AC3
Продолжительность : 1 ч. 33 м.
Вид битрейта : Постоянный
Битрейт : 384 Кбит/сек
Каналы : 6 каналов
Расположение каналов : Front: L C R, Side: L R, LFE
Частота : 48,0 КГц
Битовая глубина : 16 бит
Метод сжатия : С потерями
Размер потока : 256 Мбайт (1%)
Заголовок : VO, Горчаков
Язык : Russian
Default : Нет
Forced : Нет
Аудио #11
Идентификатор : 12
Формат : AC-3
Формат/Информация : Audio Coding 3
Расширение режима : CM (complete main)
Параметр Endianness формата : Big
Идентификатор кодека : A_AC3
Продолжительность : 1 ч. 33 м.
Вид битрейта : Постоянный
Битрейт : 192 Кбит/сек
Каналы : 2 канала
Расположение каналов : Front: L R
Частота : 48,0 КГц
Битовая глубина : 16 бит
Метод сжатия : С потерями
Размер потока : 128 Мбайт (1%)
Заголовок : VO, Горчаков
Язык : Russian
Default : Нет
Forced : Нет
Аудио #12
Идентификатор : 13
Формат : AC-3
Формат/Информация : Audio Coding 3
Расширение режима : CM (complete main)
Параметр Endianness формата : Big
Идентификатор кодека : A_AC3
Продолжительность : 1 ч. 33 м.
Вид битрейта : Постоянный
Битрейт : 192 Кбит/сек
Каналы : 2 канала
Расположение каналов : Front: L R
Частота : 48,0 КГц
Битовая глубина : 16 бит
Метод сжатия : С потерями
Размер потока : 128 Мбайт (1%)
Заголовок : VO, Ошурков
Язык : Russian
Default : Нет
Forced : Нет
Аудио #13
Идентификатор : 14
Формат : DTS
Формат/Информация : Digital Theater Systems
Режим : 16
Параметр Endianness формата : Big
Идентификатор кодека : A_DTS
Продолжительность : 1 ч. 33 м.
Вид битрейта : Постоянный
Битрейт : 1509 Кбит/сек
Каналы : 6 каналов
Расположение каналов : Front: L C R, Side: L R, LFE
Частота : 48,0 КГц
Битовая глубина : 16 бит
Метод сжатия : С потерями
Размер потока : 1008 Мбайт (5%)
Язык : English
Default : Нет
Forced : Нет
Текст #1
Идентификатор : 15
Формат : UTF-8
Идентификатор кодека : S_TEXT/UTF8
Идентификатор кодека/Информация : UTF-8 Plain Text
Язык : Russian
Default : Нет
Forced : Нет
Текст #2
Идентификатор : 16
Формат : UTF-8
Идентификатор кодека : S_TEXT/UTF8
Идентификатор кодека/Информация : UTF-8 Plain Text
Язык : Russian
Default : Нет
Forced : Нет
Текст #3
Идентификатор : 17
Формат : UTF-8
Идентификатор кодека : S_TEXT/UTF8
Идентификатор кодека/Информация : UTF-8 Plain Text
Язык : Russian
Default : Нет
Forced : Нет
Текст #4
Идентификатор : 18
Формат : UTF-8
Идентификатор кодека : S_TEXT/UTF8
Идентификатор кодека/Информация : UTF-8 Plain Text
Язык : English
Default : Нет
Forced : Нет
Текст #5
Идентификатор : 19
Формат : UTF-8
Идентификатор кодека : S_TEXT/UTF8
Идентификатор кодека/Информация : UTF-8 Plain Text
Язык : Ukrainian
Default : Нет
Forced : Нет
Меню
00:00:00.000 : en:Chapter 1
00:05:31.663 : en:Chapter 2
00:12:10.730 : en:Chapter 3
00:16:23.730 : en:Chapter 4
00:22:44.778 : en:Chapter 5
00:24:54.114 : en:Chapter 6
00:28:51.229 : en:Chapter 7
00:33:27.880 : en:Chapter 8
00:40:56.077 : en:Chapter 9
00:46:36.460 : en:Chapter 10
00:50:12.050 : en:Chapter 11
00:53:15.733 : en:Chapter 12
00:59:37.988 : en:Chapter 13
01:05:29.215 : en:Chapter 14
01:10:41.944 : en:Chapter 15
01:14:12.154 : en:Chapter 16
01:16:57.029 : en:Chapter 17
01:20:29.407 : en:Chapter 18
01:23:03.853 : en:Chapter 19
01:27:20.944 : en:Chapter 20
-
Скачать

Скачать торрент!

Как скачивать? · Что такое торрент? · Рейтинг и ограничения

Сайт не распространяет и не хранит электронные версии произведений, а лишь предоставляет доступ к создаваемому пользователями каталогу ссылок на торрент-файлы, которые содержат только списки хеш-сумм

[Профиль] [ЛС]
Показать сообщения:    
Ответить на тему

Текущее время: Сегодня 20:40

Часовой пояс: GMT + 4



Вы не можете начинать темы
Вы не можете отвечать на сообщения
Вы не можете редактировать свои сообщения
Вы не можете удалять свои сообщения
Вы не можете голосовать в опросах
Вы не можете прикреплять файлы к сообщениям
Вы не можете скачивать файлы