Поймать призрака / Пендаль привидению / Ghost punting / Wu fu xing chuang gui (Саммо Хунг / Sammo Hung, Кори Юэнь / Corey Yuen, Эрик Тсанг / Eric Tsang, Рикки Лау / Ricky Lau) [1992, Гонконг, комедия, мистика, DVDRip] VO (Shaman)

Ответить на тему
 
Автор Сообщение

user ®

Стаж: 13 лет

Сообщений: 15071

Пост Пост: #1 от 03-Фев-2015 20:57

[Цитировать]

Поймать призрака / Пендаль привидению / Ghost punting / Wu fu xing chuang gui
Страна: Гонконг
Жанр: комедия, мистика
Год выпуска: 1992
Продолжительность: 01:27:54
Перевод: Одноголосый закадровый Shaman
Cубтитры: нет
Оригинальная аудиодорожка: нет
Режиссёры: Саммо Хунг / Sammo Hung, Кори Юэнь / Corey Yuen, Эрик Тсанг / Eric Tsang, Рикки Лау / Ricky Lau
В ролях: Саммо Хунг, Эрик Тсанг, Ричард Нг, Стэнли Фунг, Чарли Чин, Нат Чан, Сибелль Ху, Элейн Луи, Монди Яу, Чин Хо, Тедди Йип
Описание: Наши старые знакомые «счастливые звёзды» снова в деле – на этот раз они поселяются неподалёку от дома, где водятся привидения. Инспектор Ву не верит в россказни друзей и присылает четвёрку крутых инспекторш, которые должны разобраться в ситуации. Девушки и не подозревают, что в том самом доме и правда водятся привидения, причем целых два – помешанная на сексе и крови вампирша и безобидный призрак, погибший из-за того, что посмел завести роман с девушкой крутого бандита.
Доп. информация: Шестой фильм из серии про Счастливых звёзд (всего их семь).
http://en.wikipedia.org/wiki/Five_Lucky_Stars
Сэмпл: http://multi-up.com/1030896
Качество видео: DVDRip
Формат видео: AVI
Видео: 704x368 (1.91:1), 23.976 fps, XviD build 50 ~2120 kbps avg, 0.34 bit/pixel
Аудио: 48 kHz, MPEG Layer 3, 2 ch, ~128.00 kbps avg
MediaInfo
Общее
Полное имя : D:\Пендаль привидению 1992.avi
Формат : AVI
Формат/Информация : Audio Video Interleave
Размер файла : 1,39 Гбайт
Продолжительность : 1 ч. 27 м.
Общий поток : 2258 Кбит/сек
Программа кодирования : VirtualDubModRus 1.5.10.2 (build 2540/release)
Библиотека кодирования : VirtualDubMod build 2540/release
Видео
Идентификатор : 0
Формат : MPEG-4 Visual
Профиль формата : Advanced Simple@L5
Параметр BVOP формата : 2
Параметр QPel формата : Нет
Параметр GMC формата : Без точки перехода
Параметр матрицы формата : Default (MPEG)
Идентификатор кодека : XVID
Идентификатор кодека/Подсказка : XviD
Продолжительность : 1 ч. 27 м.
Битрейт : 2120 Кбит/сек
Ширина : 704 пикселя
Высота : 368 пикселей
Соотношение сторон : 1,913
Частота кадров : 23,976 кадра/сек
Цветовое пространство : YUV
Субдискретизация насыщенности : 4:2:0
Битовая глубина : 8 бит
Тип развёртки : Прогрессивная
Метод сжатия : С потерями
Бит/(Пиксели*Кадры) : 0.341
Размер потока : 1,30 Гбайт (94%)
Библиотека кодирования : XviD 1.2.1 (UTC 2008-12-04)
Аудио
Идентификатор : 1
Формат : MPEG Audio
Версия формата : Version 1
Профиль формата : Layer 3
Режим : Joint stereo
Расширение режима : MS Stereo
Идентификатор кодека : 55
Идентификатор кодека/Подсказка : MP3
Продолжительность : 1 ч. 27 м.
Вид битрейта : Постоянный
Битрейт : 128 Кбит/сек
Каналы : 2 канала
Частота : 48,0 КГц
Метод сжатия : С потерями
Размер потока : 80,5 Мбайт (6%)
Выравнивание : Соединение по промежуткам
Продолжительность промежутка : 42 мс. (1,00 видеокадр)
Время предзагрузки промежутка : 504 мс.
Скриншот c названием фильма Скриншоты
Скачать

Скачать торрент! Поймать призрака / Пендаль привидению / Ghost punting / Wu fu xing chuang gui (Саммо Хунг / Sammo Hung, Кори Юэнь / Corey Yuen, Эрик Тсанг / Eric Tsang, Рикки Лау / Ricky Lau) [1992, Гонконг, комедия, мистика, DVDRip] VO (Shaman)

Как скачивать? · Что такое торрент? · Рейтинг и ограничения

Сайт не распространяет и не хранит электронные версии произведений, а лишь предоставляет доступ к создаваемому пользователями каталогу ссылок на торрент-файлы, которые содержат только списки хеш-сумм

[Профиль] [ЛС]
Показать сообщения:    
Ответить на тему

Текущее время: Сегодня 17:26

Часовой пояс: GMT + 4



Вы не можете начинать темы
Вы не можете отвечать на сообщения
Вы не можете редактировать свои сообщения
Вы не можете удалять свои сообщения
Вы не можете голосовать в опросах
Вы не можете прикреплять файлы к сообщениям
Вы не можете скачивать файлы