Смерть свадебного свидетеля / Best Man Down (Тед Коланд / Ted Koland) [2012, США, драма, комедия, BDRip 720p] VO (PashaUp) + Sub Rus, Eng + Original Eng

Ответить на тему
 
Автор Сообщение

user ®

Стаж: 7 лет 7 месяцев

Сообщений: 20008

Пост Пост: #1 от 03-Фев-2015 20:57

[Цитировать]

Смерть свадебного свидетеля / Best Man Down
Страна: США
Жанр: драма, комедия
Год выпуска: 2012
Продолжительность: 01:29:50
Перевод: Одноголосый закадровый PashaUp по переводу mr.IamRock
Cубтитры: русские, английские
Оригинальная аудиодорожка: английский
Режиссер: Тед Коланд / Ted Koland
В ролях: Джастин Лонг, Джесс Вейкслер, Тайлер Лабин, Эддисон Тимлин, Шелли Лонг, Фрэнсис О’Коннор, Ивэн Джонс, Майкл Лэндис, Питер Сивертсен, Джеймс Детмар
Описание: У Скотта и Кристин наступил долгожданный и волнительный день их бракосочетания. После празднования свадебного торжества влюбленные собираются отправиться в путешествие. Однако финал праздника омрачается трагическим событием: лучшего друга жениха Лампи, который на свадьбе был его свидетелем, находят мертвым…
IMDB: 6,5/10 from 6 758 users
Кинопоиск
Сэмпл: http://multi-up.com/1030618
Тип релиза: BDRip 720p
Контейнер: MKV
Видео: BDRip, H.264, 2.35:1, 23.976 fps, 1280x544, 6 325 Kbp/s [best.man.down.2012.720p.bluray.x264-brmp.mkv]
Аудио: Русский, AC3 6 ch, 48000Hz, 448 Kbp/s
Аудио 2: Английский, DTS 6 ch, 48000Hz, 1 509 Kbp/s
Субтитры: русские, английские
Формат субтитров: softsub (SRT)
MediaInfo
General
Complete name : best.man.down.2012.720p.bluray.x264-brmp.mkv
Format : Matroska
Format version : Version 2
File size : 5.20 GiB
Duration : 1h 29mn
Overall bit rate : 8 286 Kbps
Encoded date : UTC 2015-02-02 05:45:05
Writing application : mkvmerge v6.6.0 ('The Edge Of The In Between') built on Dec 1 2013 17:55:00
Writing library : libebml v1.3.0 + libmatroska v1.4.1
Attachements : poster.jpg
Video
ID : 1
Format : AVC
Format/Info : Advanced Video Codec
Format profile : High@L4.1
Format settings, CABAC : Yes
Format settings, ReFrames : 5 frames
Codec ID : V_MPEG4/ISO/AVC
Duration : 1h 29mn
Bit rate : 6 325 Kbps
Width : 1 280 pixels
Height : 544 pixels
Display aspect ratio : 2.35:1
Frame rate mode : Constant
Frame rate : 23.976 fps
Color space : YUV
Chroma subsampling : 4:2:0
Bit depth : 8 bits
Scan type : Progressive
Bits/(Pixel*Frame) : 0.379
Stream size : 3.87 GiB (74%)
Title : Best Man Down (2012)
Writing library : x264 core 140 r2377 1ca7bb9
Encoding settings : cabac=1 / ref=5 / deblock=1:0:0 / analyse=0x3:0x133 / me=umh / subme=7 / psy=1 / psy_rd=1.00:0.00 / mixed_ref=1 / me_range=16 / chroma_me=1 / trellis=1 / 8x8dct=1 / cqm=0 / deadzone=21,11 / fast_pskip=0 / chroma_qp_offset=-2 / threads=12 / lookahead_threads=2 / sliced_threads=0 / nr=0 / decimate=1 / interlaced=0 / bluray_compat=0 / constrained_intra=0 / bframes=3 / b_pyramid=2 / b_adapt=1 / b_bias=0 / direct=1 / weightb=1 / open_gop=0 / weightp=2 / keyint=240 / keyint_min=23 / scenecut=40 / intra_refresh=0 / rc_lookahead=40 / rc=2pass / mbtree=1 / bitrate=6325 / ratetol=1.0 / qcomp=0.60 / qpmin=0 / qpmax=69 / qpstep=4 / cplxblur=20.0 / qblur=0.5 / ip_ratio=1.40 / aq=1:1.00
Language : English
Default : Yes
Forced : No
Audio #1
ID : 2
Format : AC-3
Format/Info : Audio Coding 3
Mode extension : CM (complete main)
Format settings, Endianness : Big
Codec ID : A_AC3
Duration : 1h 29mn
Bit rate mode : Constant
Bit rate : 448 Kbps
Channel(s) : 6 channels
Channel positions : Front: L C R, Side: L R, LFE
Sampling rate : 48.0 KHz
Bit depth : 16 bits
Compression mode : Lossy
Stream size : 288 MiB (5%)
Title : VO [PashaUp] по переводу [mr.IamRock]
Language : Russian
Default : Yes
Forced : No
Audio #2
ID : 3
Format : DTS
Format/Info : Digital Theater Systems
Mode : 16
Format settings, Endianness : Big
Codec ID : A_DTS
Duration : 1h 29mn
Bit rate mode : Constant
Bit rate : 1 509 Kbps
Channel(s) : 6 channels
Channel positions : Front: L C R, Side: L R, LFE
Sampling rate : 48.0 KHz
Bit depth : 24 bits
Compression mode : Lossy
Stream size : 970 MiB (18%)
Language : English
Default : No
Forced : No
Text #1
ID : 4
Format : UTF-8
Codec ID : S_TEXT/UTF8
Codec ID/Info : UTF-8 Plain Text
Language : Russian
Default : No
Forced : No
Text #2
ID : 5
Format : UTF-8
Codec ID : S_TEXT/UTF8
Codec ID/Info : UTF-8 Plain Text
Language : English
Default : No
Forced : No
Скриншоты
Скачать

Скачать торрент!

Как скачивать? · Что такое торрент? · Рейтинг и ограничения

Сайт не распространяет и не хранит электронные версии произведений, а лишь предоставляет доступ к создаваемому пользователями каталогу ссылок на торрент-файлы, которые содержат только списки хеш-сумм

[Профиль] [ЛС]
Показать сообщения:    
Ответить на тему

Текущее время: Сегодня 04:16

Часовой пояс: GMT + 4



Вы не можете начинать темы
Вы не можете отвечать на сообщения
Вы не можете редактировать свои сообщения
Вы не можете удалять свои сообщения
Вы не можете голосовать в опросах
Вы не можете прикреплять файлы к сообщениям
Вы не можете скачивать файлы