8 первых свиданий (Дэвид Додсон, Александр Маляревский) [2012, Фэнтези, комедия, мелодрама, BDRip]

Ответить на тему
 
Автор Сообщение

user ®

Стаж: 7 лет 7 месяцев

Сообщений: 20008

Пост Пост: #1 от 03-Фев-2015 20:57

[Цитировать]

8 первых свиданий
Жанр: Фэнтези, комедия, мелодрама
Год выпуска: 2012
Продолжительность: 01:26:33
Режиссёр: Дэвид Додсон, Александр Маляревский
В ролях: Оксана Акиньшина, Владимир Зеленский, Денис Никифоров, Екатерина Варнава, Сабина Ахмедова, Ильдар Аллабирдин, Сергей Барковский, Наталья Иохвидова, Игорь Жижикин, Елена Кондулайнен, Евгений Кошевой, Мария Кравцова, Александр Маляревский, Костя Наконечный, Сосо Павлиашвили, Мария Петровская, Андрей Щукин, Виктор Васильев, Наталья Вихрян, Олеся Железняк, Дамир Коломийченко, Юлия Беретта
Описание: Вера телезвезда, ее жених Константин — профессиональный теннисист. Они собираются пожениться. Никита врач-ветеринар и красавица-хирург Илона также спешат оформить отношения. Но одно прекрасное утро разрушает все планы. После веселого вечера Вера просыпается в одной постели с Никитой. Решив, что это последствия слишком бурной вечеринки, молодые люди разъезжаются в разные стороны. Но следующим днем все повторяется — Никита и Вера снова вместе, хотя каждый хорошо помнит, как они засыпали дома — каждый у себя… Так происходит всю последующую неделю. Какие-то таинственные силы устраивают эти неожиданные «свидания», кто-то хочет разрушить их браки, а может быть просто доказать, что они созданы друг для друга?

Качество видео: BDRip [Исходник: Blu-ray RUS 1080p MPEG-2 DD5.1]
Формат видео: AVI
Видео: XviD, 994 Кбит/с, 656x272 (2.40:1), 24 кадр/с
Аудио: Русский, MP3, 48000 Гц, 128 Кбит/с, 2 канала (Стерео) - Оригинал

Автор рипа - ivandubskoj
MediaInfo
General
Complete name : 8.pervuh.svidaniy.2012.BDRip.700MB.avi
Format : AVI
Format/Info : Audio Video Interleave
File size : 700 MiB
Duration : 1h 26mn
Overall bit rate : 1 131 Kbps
Writing application : VirtualDubMod 1.5.10.3 (build 2550/release)
Writing library : VirtualDubMod build 2550/release
Copyright : rip by ivandubskoj
Video
ID : 0
Format : MPEG-4 Visual
Format profile : Advanced Simple@L5
Format settings, BVOP : 2
Format settings, QPel : No
Format settings, GMC : No warppoints
Format settings, Matrix : Custom
Codec ID : XVID
Codec ID/Hint : XviD
Duration : 1h 26mn
Bit rate : 994 Kbps
Width : 656 pixels
Height : 272 pixels
Display aspect ratio : 2.40:1
Frame rate : 24.000 fps
Color space : YUV
Chroma subsampling : 4:2:0
Bit depth : 8 bits
Scan type : Progressive
Compression mode : Lossy
Bits/(Pixel*Frame) : 0.232
Stream size : 615 MiB (88%)
Writing library : XviD 73
Audio
ID : 1
Format : MPEG Audio
Format version : Version 1
Format profile : Layer 3
Codec ID : 55
Codec ID/Hint : MP3
Duration : 1h 26mn
Bit rate mode : Constant
Bit rate : 128 Kbps
Channel(s) : 2 channels
Sampling rate : 48.0 KHz
Compression mode : Lossy
Stream size : 79.2 MiB (11%)
Alignment : Aligned on interleaves
Interleave, duration : 42 ms (1.00 video frame)
Interleave, preload duration : 504 ms
Writing library : LAME3.99r
Encoding settings : -m s -V 4 -q 0 -lowpass 17 -b 128
Скриншот c названием фильма Скриншоты
Скачать

Скачать торрент!

Как скачивать? · Что такое торрент? · Рейтинг и ограничения

Сайт не распространяет и не хранит электронные версии произведений, а лишь предоставляет доступ к создаваемому пользователями каталогу ссылок на торрент-файлы, которые содержат только списки хеш-сумм

[Профиль] [ЛС]
Показать сообщения:    
Ответить на тему

Текущее время: Сегодня 07:55

Часовой пояс: GMT + 4



Вы не можете начинать темы
Вы не можете отвечать на сообщения
Вы не можете редактировать свои сообщения
Вы не можете удалять свои сообщения
Вы не можете голосовать в опросах
Вы не можете прикреплять файлы к сообщениям
Вы не можете скачивать файлы