Тёмный мир: Равновесие (Олег Асадулин) [2013, фэнтези, приключения, BDRip]

Ответить на тему
 
Автор Сообщение

user ®

Стаж: 7 лет 7 месяцев

Сообщений: 20008

Пост Пост: #1 от 03-Фев-2015 12:48

[Цитировать]

Тёмный мир: Равновесие- Год выпуска: 2013
Продолжительность: 01:35:22
Жанр: фэнтези, приключения
Cубтитры: нет-Режиссер: Олег Асадулин
В ролях: Мария Пирогова, Павел Прилучный, Макар Запорожский, Евгения Брик, Александр Ратников, Владислав Абашин, Петр Семак, Алиса Хазанова, Валерий Опёнкин, Тимофей Носков
О фильме: Каждый день они крадут твои силы, твои эмоции, твою любовь. Мы называем их Тени. Работа таких, как мы — доставлять их обратно в Тёмный мир. Надвигается катастрофа, и человечество может оказаться во власти тьмы…
И только мы можем сохранить равновесие.
Релиз:
Автор: sociolog_melvas
Качество: BDRip (источник: / Blu-ray Disc / 1080p)
Формат: AVI
Видео: 704x400 (1.76:1), 23.976 fps, XviD build 65 ~1724 kbps avg, 0.26 bit/pixel
Аудио: 48 kHz, AC3 Dolby Digital, 3/2 (L,C,R,l,r) + LFE ch, ~448.00 kbps avg
Размер: 1487.87 Mb (1/3 DVD-R)
Скачать: Семпл-

Кадры из фильма
-
Mi
Формат : AVI
Формат/Информация : Audio Video Interleave
Размер файла : 1,45 Гбайт
Продолжительность : 1 ч. 35 м.
Общий поток : 2181 Кбит/сек
Название фильма : Тёмный мир: Равновесие (2013) BDRip
Режиссёр : sociolog_melvas
Жанр : фэнтези, приключения
Программа кодирования : VirtualDubMod 1.5.10.2 (build 2540/release)
Примечание : 02.02.2015
Видео
Идентификатор : 0
Формат : MPEG-4 Visual
Профиль формата : Advanced Simple@L5
Параметр BVOP формата : 1
Параметр QPel формата : Нет
Параметр GMC формата : Без точки перехода
Параметр матрицы формата : Выборочная
Идентификатор кодека : XVID
Идентификатор кодека/Подсказка : XviD
Продолжительность : 1 ч. 35 м.
Битрейт : 1724 Кбит/сек
Ширина : 704 пикселя
Высота : 400 пикселей
Соотношение сторон : 16:9
Частота кадров : 23,976 кадра/сек
Цветовое пространство : YUV
Субдискретизация насыщенности : 4:2:0
Битовая глубина : 8 бит
Тип развёртки : Прогрессивная
Метод сжатия : С потерями
Бит/(Пиксели*Кадры) : 0.255
Размер потока : 1,15 Гбайт (79%)
Библиотека кодирования : XviD 65
Аудио
Идентификатор : 1
Формат : AC-3
Формат/Информация : Audio Coding 3
Расширение режима : CM (complete main)
Параметр Endianness формата : Big
Идентификатор кодека : 2000
Продолжительность : 1 ч. 35 м.
Вид битрейта : Постоянный
Битрейт : 448 Кбит/сек
Каналы : 6 каналов
Расположение каналов : Front: L C R, Side: L R, LFE
Частота : 48,0 КГц
Битовая глубина : 16 бит
Метод сжатия : С потерями
Размер потока : 306 Мбайт (21%)
Выравнивание : Разделение по промежуткам
Продолжительность промежутка : 42 мс. (1,00 видеокадр)
Время предзагрузки промежутка : 500 мс.
-
Скачать

Скачать торрент!

Как скачивать? · Что такое торрент? · Рейтинг и ограничения

Сайт не распространяет и не хранит электронные версии произведений, а лишь предоставляет доступ к создаваемому пользователями каталогу ссылок на торрент-файлы, которые содержат только списки хеш-сумм

[Профиль] [ЛС]
Показать сообщения:    
Ответить на тему

Текущее время: Сегодня 13:38

Часовой пояс: GMT + 4



Вы не можете начинать темы
Вы не можете отвечать на сообщения
Вы не можете редактировать свои сообщения
Вы не можете удалять свои сообщения
Вы не можете голосовать в опросах
Вы не можете прикреплять файлы к сообщениям
Вы не можете скачивать файлы