День выборов (Олег Фомин) [2007, Комедия, TVRip] Расширенная телеверсия

Ответить на тему
 
Автор Сообщение

user ®

Стаж: 7 лет 7 месяцев

Сообщений: 20008

Пост Пост: #1 от 03-Фев-2015 03:27

[Цитировать]

День выборов / Расширенная телеверсия
Жанр: Комедия
Год выпуска: 2007
Продолжительность: 02:32:22
Режиссёр: Олег Фомин
В ролях: Василий Уткин, Михаил Козырев, Михаил Ефремов, Дмитрий Певцов, Леонид Барац, Ростислав Хаит, Камиль Ларин, Александр Демидов, Михаил Евланов, Анна Азарова
Описание: Руководитель одной из самых рейтинговых радиостанций страны получает заказ от загадочного клиента. Необходимо «раскрутить» на региональных выборах своего кандидата, отобрать голоса у конкурентов и тем самым повлиять на избрание нового губернатора. За выполнение задачи государственной важности берутся лучшие умы радиостанции.
Доп. информация: Полная телеверсия, 4 серии, рипнуто с цифрового Ren-TV 31.01.2015. Затёрт логотип и название фильма (уж не знаю, зачем Рен его показывает всё время). Почему-то получилось на 4 минуты короче [url=http://***/forum/viewtopic.php?t=712293]предыдущей раздачи[/url]. Возможно из-за того, что на сцене, где Камиль зачитывает Карамазовых, у меня вырубилась запись. Тут же включил опять, но секунд 10-15 пропало, на стыке кадров, поэтому почти незаметно. Кто найдёт ещё различия, прошу сообщить, добавлю сюда описание.
Сэмпл: https://yadi.sk/d/zKYOs1YoeRFPE
Качество видео: TVRip
Формат видео: AVI
Видео: MPEG4 Video (H264) 702x534 50fps 1373kbps [V: h264 high L3.1, yuv420p, 702x534, 1373 kb/s]
Аудио: MP3 48000Hz stereo 128kbps [A: mp3, 48000 Hz, stereo, 128 kb/s]
MediaInfo
Format : AVI
Format/Info : Audio Video Interleave
File size : 1.62 GiB
Duration : 2h 32mn
Overall bit rate : 1 520 Kbps
Video
ID : 0
Format : AVC
Format/Info : Advanced Video Codec
Format profile : High@L3.1
Format settings, CABAC : Yes
Format settings, ReFrames : 4 frames
Codec ID : H264
Duration : 2h 32mn
Bit rate : 1 374 Kbps
Width : 702 pixels
Height : 534 pixels
Display aspect ratio : 4:3
Frame rate : 50.000 fps
Color space : YUV
Chroma subsampling : 4:2:0
Bit depth : 8 bits
Scan type : Progressive
Bits/(Pixel*Frame) : 0.073
Stream size : 1.46 GiB (90%)
Writing library : x264 core 123 r2189 35cf912
Encoding settings : cabac=1 / ref=3 / deblock=1:0:0 / analyse=0x3:0x133 / me=hex / subme=7 / psy=1 / psy_rd=1.00:0.00 / mixed_ref=1 / me_range=16 / chroma_me=1 / trellis=1 / 8x8dct=1 / cqm=0 / deadzone=21,11 / fast_pskip=1 / chroma_qp_offset=-2 / threads=6 / sliced_threads=0 / nr=0 / decimate=1 / interlaced=0 / bluray_compat=0 / constrained_intra=0 / bframes=3 / b_pyramid=2 / b_adapt=1 / b_bias=0 / direct=1 / weightb=1 / open_gop=0 / weightp=2 / keyint=250 / keyint_min=25 / scenecut=40 / intra_refresh=0 / rc_lookahead=40 / rc=crf / mbtree=1 / crf=20.0 / qcomp=0.60 / qpmin=10 / qpmax=51 / qpstep=4 / ip_ratio=1.40 / aq=1:1.00
Audio
ID : 1
Format : MPEG Audio
Format version : Version 1
Format profile : Layer 3
Codec ID : 55
Codec ID/Hint : MP3
Duration : 2h 32mn
Bit rate mode : Constant
Bit rate : 128 Kbps
Channel(s) : 2 channels
Sampling rate : 48.0 KHz
Compression mode : Lossy
Stream size : 139 MiB (8%)
Alignment : Aligned on interleaves
Interleave, duration : 24 ms (1.20 video frame)
Скриншоты
Скачать

Скачать торрент!

Как скачивать? · Что такое торрент? · Рейтинг и ограничения

Сайт не распространяет и не хранит электронные версии произведений, а лишь предоставляет доступ к создаваемому пользователями каталогу ссылок на торрент-файлы, которые содержат только списки хеш-сумм

[Профиль] [ЛС]
Показать сообщения:    
Ответить на тему

Текущее время: Сегодня 19:38

Часовой пояс: GMT + 4



Вы не можете начинать темы
Вы не можете отвечать на сообщения
Вы не можете редактировать свои сообщения
Вы не можете удалять свои сообщения
Вы не можете голосовать в опросах
Вы не можете прикреплять файлы к сообщениям
Вы не можете скачивать файлы