Два дня (Авдотья Смирнова) [2011 г., мелодрама, BDRip]

Ответить на тему
 
Автор Сообщение

user ®

Стаж: 7 лет 7 месяцев

Сообщений: 20008

Пост Пост: #1 от 03-Фев-2015 03:27

[Цитировать]

Два дня Год выпуска: 2011.
Жанр: мелодрама.
Продолжительность: 01:29:44.
Режиссер: Авдотья Смирнова.
В ролях:
Фёдор Бондарчук, Ксения Раппопорт, Евгений Муравич, Анна Пармас, Ирина Розанова, Борис Каморзин, Геннадий Смирнов, Константин Шелестун, Мария Семёнова, Андрей Смирнов, Ольга Дыховичная, Сергей Уманов.
Описание:
В небольшом провинциальном городе разгорелись нешуточные страсти вокруг местного музея. Губернатор области хочет отнять у музея земельные владения и построить на них новую резиденцию. Для выяснения ситуации и помощи местному начальству в городок приезжает чиновник из Москвы, Пётр Дроздов. Однако всё меняет встреча с Машей, молодым литературоведом, работающей в музее заместителем директора. Между Петром и Машей возникает серьёзное чувство, ради которого Пётр готов полностью перевернуть свою жизнь.
Доп. информация:
Страна: Россия .
Киностудия: Art Pictures Studio, Централ Партнершип.
Авторы сценария: Авдотья Смирнова, Анна Пармас.
Оператор: Максим Осадчий-Корытковский.
Композиторы: Алексей Стеблёв, Петр Климов.
Художник: Екатерина Залетаева.
Премьера: 8 сентября 2011 года, 17 декабря 2011 года (Первый канал).

Релиз
Рип sharky.

Качество: BDRip [BLU-RAY | 1080p]
Формат: AVI
Видео: 720x304 (2.37:1), 25 fps, XviD build 47 ~2108 kbps avg, 0.39 bit/pixel
Аудио: 48 kHz, AC3 Dolby Digital, 2/0 (L,R) ch, ~192 kbps
Отчет MediaInfo
Общее
Полное имя : Dva.dnya.2011.XviD.BDRip.fenixclub.avi
Формат : AVI
Формат/Информация : Audio Video Interleave
Размер файла : 1,45 Гбайт
Продолжительность : 1 ч. 29 м.
Общий поток : 2311 Кбит/сек
Программа кодирования : VirtualDubMod 1.5.10.2 (build 2540/release)
Библиотека кодирования : VirtualDubMod build 2540/release
Видео
Идентификатор : 0
Формат : MPEG-4 Visual
Профиль формата : Advanced Simple@L5
Параметр BVOP формата : 1
Параметр QPel формата : Нет
Параметр GMC формата : Без точки перехода
Параметр матрицы формата : Default (H.263)
Идентификатор кодека : XVID
Идентификатор кодека/Подсказка : XviD
Продолжительность : 1 ч. 29 м.
Битрейт : 2109 Кбит/сек
Ширина : 720 пикселей
Высота : 304 пикселя
Соотношение сторон : 2,35:1
Частота кадров : 25,000 кадров/сек
Цветовое пространство : YUV
Субдискретизация насыщенности : 4:2:0
Битовая глубина : 8 бит
Тип развёртки : Прогрессивная
Метод сжатия : С потерями
Бит/(Пиксели*Кадры) : 0.385
Размер потока : 1,32 Гбайт (91%)
Библиотека кодирования : XviD 1.2.0.dev47 (UTC 2006-11-01)
Аудио
Идентификатор : 1
Формат : AC-3
Формат/Информация : Audio Coding 3
Расширение режима : CM (complete main)
Параметр Endianness формата : Big
Идентификатор кодека : 2000
Продолжительность : 1 ч. 29 м.
Вид битрейта : Постоянный
Битрейт : 192 Кбит/сек
Каналы : 2 канала
Расположение каналов : Front: L R
Частота : 48,0 КГц
Битовая глубина : 16 бит
Метод сжатия : С потерями
Размер потока : 123 Мбайт (8%)
Выравнивание : Разделение по промежуткам
Продолжительность промежутка : 40 мс. (1,00 видеокадр)
Время предзагрузки промежутка : 500 мс.
Скриншоты
Альтернативный хост
Скачать

Скачать торрент!

Как скачивать? · Что такое торрент? · Рейтинг и ограничения

Сайт не распространяет и не хранит электронные версии произведений, а лишь предоставляет доступ к создаваемому пользователями каталогу ссылок на торрент-файлы, которые содержат только списки хеш-сумм

[Профиль] [ЛС]
Показать сообщения:    
Ответить на тему

Текущее время: Сегодня 19:26

Часовой пояс: GMT + 4



Вы не можете начинать темы
Вы не можете отвечать на сообщения
Вы не можете редактировать свои сообщения
Вы не можете удалять свои сообщения
Вы не можете голосовать в опросах
Вы не можете прикреплять файлы к сообщениям
Вы не можете скачивать файлы