Тайна катакомб / Голубые катакомбы / Bleu catacombes (Шарлотта Брандстром / Charlotte Brandstrom) [2013, Франция, триллер, HDTV 1080i] MVO + Original (Fre)

Ответить на тему
 
Автор Сообщение

user ®

Стаж: 7 лет 7 месяцев

Сообщений: 20008

Пост Пост: #1 от 02-Фев-2015 18:48

[Цитировать]

Тайна катакомб / Голубые катакомбы / Bleu catacombes Страна: Франция
Жанр: триллер
Год выпуска: 2013
Продолжительность: 01:37:10
Перевод: Профессиональный (многоголосый закадровый)
Cубтитры: нет
Оригинальная аудиодорожка: французский
Режиссер: Шарлотта Брандстром / Charlotte Brandstrom
В ролях: Патрик Шене, Камиль Панонакль, Джейн Биркин, Людмила Микаэль, Рут Вега Фернандез, Жан-Мишель Фете
Описание: По роману Гилды Пьерсанти / Gilda Piersanti "Синие катакомбы / Bleu catacombes" (2007), получившему престижные литературные награды: премию за лучший средиземноморский триллер 2007 и приз SNCF за лучший европейский детектив 2007.
Комиссар Руссо расследует загадочное убийство Максимилиана Мюллера, известного современного художника, чью голову нашли в парижских катакомбах. Позже в его студии обнаружили обезглавленное тело обнаженной женщины. Тайна еще более сгущается, когда следующей ночью в людном месте находят отрезанную голову третьей жертвы. Что это? Серийный убийца? Средневековый ритуал? Или чья-то страшная месть? Лишь один человек, кажется, знает ключ к разгадке – Лидия, жена художника…
[url=http://***/forum/tracker.php?nm=%D0%A2%D0%B0%D0%B9%D0%BD%D0%B0%20%D0%BA%D0%B0%D1%82%D0%B0%D0%BA%D0%BE%D0%BC%D0%B1%20%2F%20Bleu%20catacombes]Все раздачи фильма[/url]
Доп. информация:
http://www.kinopoisk.ru/film/794267/

Сэмпл: http://rusfolder.com/42876205
Тип релиза: HDTV 1080i
Контейнер: TS
Видео: AVC/H.264, 1920x1080 (16:9), 6433 Кбит/сек, 25.000 fps
Аудио 1: русский, MP2, 2ch, 48,0 КГц, 192 Кбит/сек
Аудио 2: французский, MP2, 2ch, 48,0 КГц, 192 Кбит/сек
MediaInfo
Общее
Идентификатор : 1 (0x1)
Полное имя : D:\Тайна катакомб.ts
Формат : MPEG-TS
Размер файла : 4,87 Гбайт
Продолжительность : 1 ч. 37 м.
Режим общего битрейта : Переменный
Общий поток : 7175 Кбит/сек
Максимальный общий битрейт : 35,5 Мбит/сек
Видео
Идентификатор : 4113 (0x1011)
Идентификатор меню : 1 (0x1)
Формат : AVC
Формат/Информация : Advanced Video Codec
Профиль формата : Main@L4.0
Параметр CABAC формата : Да
Параметр ReFrames формата : 3 кадра
Идентификатор кодека : 27
Продолжительность : 1 ч. 37 м.
Вид битрейта : Переменный
Битрейт : 6433 Кбит/сек
Максимальный битрейт : 40,0 Мбит/сек
Ширина : 1920 пикселей
Высота : 1080 пикселей
Соотношение сторон : 16:9
Частота кадров : 25,000 кадров/сек
Стандарт вещания : Component
Цветовое пространство : YUV
Субдискретизация насыщенности : 4:2:0
Битовая глубина : 8 бит
Тип развёртки : Чересстрочная
Порядок развёртки : Верхнее поле первое
Бит/(Пиксели*Кадры) : 0.124
Размер потока : 4,37 Гбайт (90%)
colour_range : Limited
Аудио #1
Идентификатор : 4352 (0x1100)
Идентификатор меню : 1 (0x1)
Формат : MPEG Audio
Версия формата : Version 1
Профиль формата : Layer 2
Идентификатор кодека : 4
Продолжительность : 1 ч. 37 м.
Вид битрейта : Постоянный
Битрейт : 192 Кбит/сек
Каналы : 2 канала
Частота : 48,0 КГц
Метод сжатия : С потерями
Размер потока : 133 Мбайт (3%)
Язык : Russian
Аудио #2
Идентификатор : 4353 (0x1101)
Идентификатор меню : 1 (0x1)
Формат : MPEG Audio
Версия формата : Version 1
Профиль формата : Layer 2
Идентификатор кодека : 4
Продолжительность : 1 ч. 37 м.
Вид битрейта : Постоянный
Битрейт : 192 Кбит/сек
Каналы : 2 канала
Частота : 48,0 КГц
Метод сжатия : С потерями
Размер потока : 133 Мбайт (3%)
Язык : French
Скриншот с названием фильма Скриншоты
Скачать

Скачать торрент!

Как скачивать? · Что такое торрент? · Рейтинг и ограничения

Сайт не распространяет и не хранит электронные версии произведений, а лишь предоставляет доступ к создаваемому пользователями каталогу ссылок на торрент-файлы, которые содержат только списки хеш-сумм

[Профиль] [ЛС]
Показать сообщения:    
Ответить на тему

Текущее время: Сегодня 13:41

Часовой пояс: GMT + 4



Вы не можете начинать темы
Вы не можете отвечать на сообщения
Вы не можете редактировать свои сообщения
Вы не можете удалять свои сообщения
Вы не можете голосовать в опросах
Вы не можете прикреплять файлы к сообщениям
Вы не можете скачивать файлы