Маленькая черная книжка / Little Black Book (Ник Харран / Nick Hurran) [2004, США, комедия, мелодрама, драма, WEB-DL 720p] DVO + DVO (Tycoon) + Sub (Rus, Eng) + Original Eng

Ответить на тему
 
Автор Сообщение

user ®

Стаж: 7 лет 7 месяцев

Сообщений: 20008

Пост Пост: #1 от 02-Фев-2015 18:48

[Цитировать]

Маленькая черная книжка / Little Black Book- Страна: США
Жанр: комедия, мелодрама, драма
Год выпуска: 2004
Продолжительность: 01:46:33
Перевод 1: Профессиональный (двухголосый закадровый)
Перевод 2: Профессиональный (двухголосый закадровый)
Cубтитры: русские, английские
Оригинальная аудиодорожка: английский-Режиссер: Ник Харран / Nick Hurran
В ролях: Бриттани Мерфи, Холли Хантер, Кэти Бейтс, Рон Ливингстон, Джулианна Николсон, Стивен Тоболовски, Кевин Суссман, Рашида Джонс, Джози Мэран, Джейсон Антун-Описание: Продюсер дневного телевизионного ток-шоу, Стейси, слишком влюблена и слишком любопытна. Она хочет знать всё о своем новом парне Дереке, но больше всего о его бывших подружках. Стейси находит возможность заглянуть в его электронную записную книжку.
Там она находит адреса его прошлых подружек и начинает методично выуживать из них нужную ей информацию, делая вид, что действует от имени руководителя шоу. Последствия непредсказуемы — вместо того, чтобы узнать все о Дереке, Стейси узнает много нового о себе самой…-
-Тип релиза: WEB-DL 720p
Контейнер: MKV
Видео: AVC, 1280x530, 3977 Kbps, 23.976 fps
Аудио 1: AC3, 48000 Hz, 448 Kbps, 5.1 ch - DVO
Аудио 2: AC3, 48000 Hz, 384 Kbps, 5.1 ch - DVO (Tycoon)
Аудио 3: AC3, 48000 Hz, 384 Kbps, 5.1 ch - ENG
Формат субтитров: softsub (SRT) - русские, английские-Скриншоты Резервные скриншоты
-
MediaInfo
Format : MatroskaFormat version : Version 4 / Version 2File size : 3.94 GiBDuration : 1h 46mnOverall bit rate : 5 298 KbpsMovie name : Маленькая черная книжка / Little Black Book (2004) Web-DL 720p by RG Torrents.ruEncoded date : UTC 2015-02-01 09:37:12Writing application : mkvmerge v7.5.0 ('Glass Culture') 32bit built on Jan 4 2015 16:37:25Writing library : libebml v1.3.1 + libmatroska v1.4.2Cover : Yes
VideoID : 1Format : AVCFormat/Info : Advanced Video CodecFormat profile : Main@L3.1Format settings, CABAC : NoFormat settings, ReFrames : 2 framesCodec ID : V_MPEG4/ISO/AVCDuration : 1h 46mnBit rate : 3 977 KbpsWidth : 1 280 pixelsHeight : 530 pixelsDisplay aspect ratio : 2.40:1Frame rate mode : ConstantFrame rate : 23.976 fpsColor space : YUVChroma subsampling : 4:2:0Bit depth : 8 bitsScan type : ProgressiveBits/(Pixel*Frame) : 0.245Stream size : 2.96 GiB (75%)Language : EnglishDefault : YesForced : NoColor primaries : BT.709Transfer characteristics : BT.709Matrix coefficients : BT.709
Audio #1ID : 2Format : AC-3Format/Info : Audio Coding 3Mode extension : CM (complete main)Format settings, Endianness : BigCodec ID : A_AC3Duration : 1h 46mnBit rate mode : ConstantBit rate : 448 KbpsChannel(s) : 6 channelsChannel positions : Front: L C R, Side: L R, LFESampling rate : 48.0 KHzBit depth : 16 bitsCompression mode : LossyStream size : 341 MiB (8%)Title : DVOLanguage : RussianDefault : YesForced : No
Audio #2ID : 3Format : AC-3Format/Info : Audio Coding 3Mode extension : CM (complete main)Format settings, Endianness : BigCodec ID : A_AC3Duration : 1h 46mnBit rate mode : ConstantBit rate : 384 KbpsChannel(s) : 6 channelsChannel positions : Front: L C R, Side: L R, LFESampling rate : 48.0 KHzBit depth : 16 bitsCompression mode : LossyStream size : 293 MiB (7%)Title : DVO (Tycoon)Language : RussianDefault : NoForced : No
Audio #3ID : 4Format : AC-3Format/Info : Audio Coding 3Mode extension : CM (complete main)Format settings, Endianness : BigCodec ID : A_AC3Duration : 1h 46mnBit rate mode : ConstantBit rate : 384 KbpsChannel(s) : 6 channelsChannel positions : Front: L C R, Side: L R, LFESampling rate : 48.0 KHzBit depth : 16 bitsCompression mode : LossyStream size : 293 MiB (7%)Title : OriginalLanguage : EnglishDefault : NoForced : No
Text #1ID : 5Format : UTF-8Codec ID : S_TEXT/UTF8Codec ID/Info : UTF-8 Plain TextLanguage : RussianDefault : NoForced : No
Text #2ID : 6Format : UTF-8Codec ID : S_TEXT/UTF8Codec ID/Info : UTF-8 Plain TextLanguage : EnglishDefault : NoForced : No
Menu00:00:00.000 : en:Start00:04:51.000 : en:Lifemate Derek00:05:47.000 : en:Showtime00:10:43.000 : en:Staff Meeting00:14:11.000 : en:The Bottom Line00:18:14.000 : en:Past Relationships00:22:00.000 : en:Grilling Lulu00:27:48.000 : en:Forbidden Box00:31:29.000 : en:Looking Under the Hood00:34:14.000 : en:She's Not a Podiatrist00:38:36.000 : en:Freak of Nature00:40:29.000 : en:Walking the Bob00:42:43.000 : en:"There's so many!"00:45:08.000 : en:Stacy vs. Derek's Machine00:50:53.000 : en:Meeting Joyce00:55:31.000 : en:"The love show goes to…"01:00:04.000 : en:When Ex's Collide01:02:27.000 : en:Boomerangs01:04:50.000 : en:Derek Returns Early01:09:01.000 : en:Perspectives on Knowledge01:09:52.000 : en:At the Game01:11:19.000 : en:Joyce Learns the Truth01:14:32.000 : en:Barb's Running the Show01:19:18.000 : en:The Surprises Keep Coming01:23:09.000 : en:Let's Meet Derek01:26:24.000 : en:Stacy Figures it Out01:31:10.000 : en:Exit, Stage Right01:36:07.000 : en:Stacy's Dreams Come True
Скачать

Скачать торрент!

Как скачивать? · Что такое торрент? · Рейтинг и ограничения

Сайт не распространяет и не хранит электронные версии произведений, а лишь предоставляет доступ к создаваемому пользователями каталогу ссылок на торрент-файлы, которые содержат только списки хеш-сумм

[Профиль] [ЛС]
Показать сообщения:    
Ответить на тему

Текущее время: Сегодня 10:46

Часовой пояс: GMT + 4



Вы не можете начинать темы
Вы не можете отвечать на сообщения
Вы не можете редактировать свои сообщения
Вы не можете удалять свои сообщения
Вы не можете голосовать в опросах
Вы не можете прикреплять файлы к сообщениям
Вы не можете скачивать файлы