Убийство у моря / Tyskungen (Пер Ханефьорд / Per Hanefjord) [2013, Швеция, Германия, криминал, HDTV 1080i] MVO

Ответить на тему
 
Автор Сообщение

user ®

Стаж: 7 лет 7 месяцев

Сообщений: 20008

Пост Пост: #1 от 02-Фев-2015 18:48

[Цитировать]

Убийство у моря / Tyskungen Страна: Швеция, Германия
Жанр: криминал
Год выпуска: 2013
Продолжительность: 01:40:48
Перевод: Профессиональный (многоголосый закадровый)
Cубтитры: нет
Режиссер: Пер Ханефьорд / Per Hanefjord
В ролях: Клаудия Галли, Ричард Ульфзэтер, Эва Фритйофсон, Памела Кортес Бруна, Леннарт Якель, Amalia Holm Bjelke, Fanny Klefelt, Эдвин Эндре, Аксель Мирберг, Kim Solfeldt
Описание: Живописный рыбацкий городок Фьелльбакка на побережье Атлантики выглядит как ожившая туристическая открытка. Именно сюда возвращается автор детективов Эрика, мечтая предаться счастливой семейной жизни и творчеству. Но тихая провинциальная жизнь таит немало секретов. И однажды вековой покой Фьелльбакки взрывается новостью о жестоком
Сэмпл: http://rusfolder.com/42879537

Тип релиза: HDTV 1080i
Контейнер: TS
Видео: AVC/H.264, 1920x1080 (16:9), 8497 Кбит/сек, 25.000 fps
Аудио: русский, MP2, 2ch, 48,0 КГц, 192 Кбит/сек
MediaInfo
Общее
Идентификатор : 1 (0x1)
Полное имя : D:\Убийство у моря.ts
Формат : MPEG-TS
Размер файла : 6,44 Гбайт
Продолжительность : 1 ч. 40 м.
Режим общего битрейта : Переменный
Общий поток : 9143 Кбит/сек
Максимальный общий битрейт : 35,5 Мбит/сек
Видео
Идентификатор : 4113 (0x1011)
Идентификатор меню : 1 (0x1)
Формат : AVC
Формат/Информация : Advanced Video Codec
Профиль формата : Main@L4.0
Параметр CABAC формата : Да
Параметр ReFrames формата : 3 кадра
Идентификатор кодека : 27
Продолжительность : 1 ч. 40 м.
Вид битрейта : Переменный
Битрейт : 8497 Кбит/сек
Максимальный битрейт : 40,0 Мбит/сек
Ширина : 1920 пикселей
Высота : 1080 пикселей
Соотношение сторон : 16:9
Частота кадров : 25,000 кадров/сек
Стандарт вещания : Component
Цветовое пространство : YUV
Субдискретизация насыщенности : 4:2:0
Битовая глубина : 8 бит
Тип развёртки : Чересстрочная
Порядок развёртки : Верхнее поле первое
Бит/(Пиксели*Кадры) : 0.164
Размер потока : 5,98 Гбайт (93%)
colour_range : Limited
Аудио
Идентификатор : 4352 (0x1100)
Идентификатор меню : 1 (0x1)
Формат : MPEG Audio
Версия формата : Version 1
Профиль формата : Layer 2
Идентификатор кодека : 4
Продолжительность : 1 ч. 40 м.
Вид битрейта : Постоянный
Битрейт : 192 Кбит/сек
Каналы : 2 канала
Частота : 48,0 КГц
Метод сжатия : С потерями
Размер потока : 138 Мбайт (2%)
Язык : Russian
Скриншот с названием фильма Скриншоты
Скачать

Скачать торрент!

Как скачивать? · Что такое торрент? · Рейтинг и ограничения

Сайт не распространяет и не хранит электронные версии произведений, а лишь предоставляет доступ к создаваемому пользователями каталогу ссылок на торрент-файлы, которые содержат только списки хеш-сумм

[Профиль] [ЛС]
Показать сообщения:    
Ответить на тему

Текущее время: Сегодня 06:29

Часовой пояс: GMT + 4



Вы не можете начинать темы
Вы не можете отвечать на сообщения
Вы не можете редактировать свои сообщения
Вы не можете удалять свои сообщения
Вы не можете голосовать в опросах
Вы не можете прикреплять файлы к сообщениям
Вы не можете скачивать файлы