Звезда (Анна Меликян) [2014, Мелодрама, Комедия, Драма, DVDRip]

Ответить на тему
 
Автор Сообщение

user ®

Стаж: 7 лет 7 месяцев

Сообщений: 20008

Пост Пост: #1 от 02-Фев-2015 15:42

[Цитировать]

Звезда

-Страна: Россия
Жанр: Мелодрама, Комедия, Драма
Год выпуска: 2014
Продолжительность: 02:08:18-Режиссер: Анна Меликян-В ролях:Тинатин Далакишвили, Северия Янушаускайте, Павел Табаков, Андрей Смоляков, Юозас Будрайтис, Александр Шейн, Арунас Сторпирстис, Сергей Каплунов, Гоша Куценко, Денис Шведов, Филипп Янковский-Описание: Юная актриса — очаровательная и неуклюжая непосредственность, мечтающая стать настоящей звездой. Роскошная светская львица, жизнь которой в одно мгновение повисла на волоске. Её пятнадцатилетний приёмный сын, уставший от денег и притворства. Такие разные люди, такие тесно переплетенные судьбы… Изысканный юмор, нежная романтическая линия и драматичные повороты сюжета приведут нас к трогательной развязке, где каждый герой осознает, что для него значит истинное счастье.-
Сэмпл: http://multi-up.com/1030640-Качество видео: DVDRip
Формат видео: AVI-Видео: 720x400 (1.80:1), 25 fps, XviD build 50 ~1174 kbps avg, 0.16 bit/pixel
Аудио: 48 kHz, AC3 Dolby Digital, 3/2 (L,C,R,l,r) + LFE ch, ~448 kbps

MediaInfo
Общее
Полное имя : C:\Users\Пользователь\Documents\фильмы\Звезда.2014.DVDRip.avi
Формат : AVI
Формат/Информация : Audio Video Interleave
Размер файла : 1,46 Гбайт
Продолжительность : 2 ч. 8 м.
Общий поток : 1632 Кбит/сек
Название фильма : [rustorrents.org][uniongang.tv]
Программа кодирования : VirtualDubMod 1.5.10.3 | www.virtualdub-fr.org || (build 2550/release)
Видео
Идентификатор : 0
Формат : MPEG-4 Visual
Профиль формата : Advanced Simple@L5
Параметр BVOP формата : 2
Параметр QPel формата : Нет
Параметр GMC формата : Без точки перехода
Параметр матрицы формата : Выборочная
Идентификатор кодека : XVID
Идентификатор кодека/Подсказка : XviD
Продолжительность : 2 ч. 8 м.
Битрейт : 1175 Кбит/сек
Ширина : 720 пикселей
Высота : 400 пикселей
Соотношение сторон : 16:9
Частота кадров : 25,000 кадров/сек
Цветовое пространство : YUV
Субдискретизация насыщенности : 4:2:0
Битовая глубина : 8 бит
Тип развёртки : Прогрессивная
Метод сжатия : С потерями
Бит/(Пиксели*Кадры) : 0.163
Размер потока : 1,05 Гбайт (72%)
Библиотека кодирования : XviD 1.2.1 (UTC 2008-12-04)
Аудио
Идентификатор : 1
Формат : AC-3
Формат/Информация : Audio Coding 3
Расширение режима : CM (complete main)
Параметр Endianness формата : Big
Идентификатор кодека : 2000
Продолжительность : 2 ч. 8 м.
Вид битрейта : Постоянный
Битрейт : 448 Кбит/сек
Каналы : 6 каналов
Расположение каналов : Front: L C R, Side: L R, LFE
Частота : 48,0 КГц
Битовая глубина : 16 бит
Метод сжатия : С потерями
Размер потока : 411 Мбайт (27%)
Выравнивание : Разделение по промежуткам
Продолжительность промежутка : 40 мс. (1,00 видеокадр)
Время предзагрузки промежутка : 500 мс.
Скриншот c названием фильма Скриншоты
Скачать

Скачать торрент!

Как скачивать? · Что такое торрент? · Рейтинг и ограничения

Сайт не распространяет и не хранит электронные версии произведений, а лишь предоставляет доступ к создаваемому пользователями каталогу ссылок на торрент-файлы, которые содержат только списки хеш-сумм

[Профиль] [ЛС]
Показать сообщения:    
Ответить на тему

Текущее время: Сегодня 01:49

Часовой пояс: GMT + 4



Вы не можете начинать темы
Вы не можете отвечать на сообщения
Вы не можете редактировать свои сообщения
Вы не можете удалять свои сообщения
Вы не можете голосовать в опросах
Вы не можете прикреплять файлы к сообщениям
Вы не можете скачивать файлы