Я знаю, кто убил меня / I Know Who Killed Me (Крис Сайвертсон / Chris Sivertson) [2007, США, триллер, криминал, детектив, BDRip 720p] Dub + Sub Rus, Eng + Original Eng

Ответить на тему
 
Автор Сообщение

user ®

Стаж: 7 лет 7 месяцев

Сообщений: 20008

Пост Пост: #1 от 02-Фев-2015 02:30

[Цитировать]

Я знаю, кто убил меня / I Know Who Killed Me
Страна: США
Студия: 360 Pictures
Жанр: триллер, криминал, детектив
Год выпуска: 2007
Продолжительность: 01:46:20
Перевод: Профессиональный (дублированный)
Cубтитры: русские, английские (полные)
Оригинальная аудиодорожка: английский
Режиссер: Крис Сайвертсон / Chris Sivertson
В ролях: Линдси Лохан, Джулия Ормонд, Бонни Ааронс, Майкл Адлер, Гарсель Бюва, Арт Белл, Стэйси Дэниэл, Майкл Эспарза, Дэвид Фильоли, Джейн Гэлловэй Хейтц, Спенсер Гаррет, Брайан Джерати, Корнелия Гест, Меган Хеннинг
Описание: Молодую и талантливую девушку по имени Обри Флеминг похищает садист-убийца. Пробыв в заточении две недели, девушке удается бежать. Однако, когда она оказывается в безопасности, среди своих родных, она начинает утверждать, что Обри Флеминг по-прежнему находится в руках маньяка, а она сама вовсе не та, за кого они все ее принимают. И что на самом деле ее зовут Дакота Мосс.
Тем не менее, верить девушке никто не спешит, ведь, все знают, что Дакота Мосс — это персонаж одного из рассказов Обри. И все же ситуация выглядит подозрительно, и списать поведение девушки на посттравматический синдром не так-то просто.
Сэмпл: http://multi-up.com/1030199
Тип релиза: BDRip 720p
Контейнер: MKV
Видео: MPEG-4 AVC, 1280x532, 16:9, 4099 Kbps, 23.976 fps
Аудио: Russian, AC-3, 5.1, 48.0 KHz, 640 Kbps
Аудио 2: English, AC-3, 5.1, 48.0 KHz, 640 Kbps
Формат субтитров: softsub (SRT)
MediaInfo
General
Unique ID : 201659158334248788596259788752037025229 (0x97B6242308DBE8B1B2351E5D7B1F15CD)
Complete name : D:\Видео\Фильмы\I Know Who Killed Me.mkv
Format : Matroska
Format version : Version 2
File size : 3.99 GiB
Duration : 1h 46mn
Overall bit rate : 5 376 Kbps
Encoded date : UTC 2015-01-31 06:31:38
Writing application : mkvmerge v7.0.0 ('Where We Going') 32bit built on Jun 9 2014 15:08:34
Writing library : libebml v1.3.0 + libmatroska v1.4.1
DURATION : 01:35:46.908000000
NUMBER_OF_FRAMES : 748
NUMBER_OF_BYTES : 26935
_STATISTICS_WRITING_APP : mkvmerge v7.0.0 ('Where We Going') 32bit built on Jun 9 2014 15:08:34
_STATISTICS_WRITING_DATE_UT : 2015-01-31 06:31:38
_STATISTICS_TAGS : BPS DURATION NUMBER_OF_FRAMES NUMBER_OF_BYTES
Video
ID : 1
Format : AVC
Format/Info : Advanced Video Codec
Format profile : High@L4.1
Format settings, CABAC : Yes
Format settings, ReFrames : 12 frames
Codec ID : V_MPEG4/ISO/AVC
Duration : 1h 46mn
Bit rate : 4 099 Kbps
Width : 1 280 pixels
Height : 532 pixels
Display aspect ratio : 2.40:1
Frame rate mode : Constant
Frame rate : 23.976 fps
Color space : YUV
Chroma subsampling : 4:2:0
Bit depth : 8 bits
Scan type : Progressive
Bits/(Pixel*Frame) : 0.251
Stream size : 2.96 GiB (74%)
Writing library : x264 core 142 r2431 ac76440
Encoding settings : cabac=1 / ref=12 / deblock=1:-1:-1 / analyse=0x3:0x133 / me=umh / subme=11 / psy=1 / psy_rd=1.00:0.15 / mixed_ref=1 / me_range=24 / chroma_me=1 / trellis=2 / 8x8dct=1 / cqm=0 / deadzone=21,11 / fast_pskip=0 / chroma_qp_offset=-3 / threads=6 / lookahead_threads=1 / sliced_threads=0 / nr=0 / decimate=1 / interlaced=0 / bluray_compat=0 / constrained_intra=0 / bframes=4 / b_pyramid=2 / b_adapt=2 / b_bias=0 / direct=3 / weightb=1 / open_gop=0 / weightp=2 / keyint=240 / keyint_min=23 / scenecut=40 / intra_refresh=0 / rc_lookahead=60 / rc=2pass / mbtree=1 / bitrate=4099 / ratetol=1.0 / qcomp=0.60 / qpmin=0 / qpmax=69 / qpstep=4 / cplxblur=20.0 / qblur=0.5 / vbv_maxrate=62500 / vbv_bufsize=78125 / nal_hrd=none / filler=0 / ip_ratio=1.40 / aq=1:1.00
Default : Yes
Forced : No
Audio #1
ID : 2
Format : AC-3
Format/Info : Audio Coding 3
Mode extension : CM (complete main)
Format settings, Endianness : Big
Codec ID : A_AC3
Duration : 1h 46mn
Bit rate mode : Constant
Bit rate : 640 Kbps
Channel(s) : 6 channels
Channel positions : Front: L C R, Side: L R, LFE
Sampling rate : 48.0 KHz
Bit depth : 16 bits
Compression mode : Lossy
Stream size : 487 MiB (12%)
Language : Russian
Default : Yes
Forced : No
Audio #2
ID : 3
Format : AC-3
Format/Info : Audio Coding 3
Mode extension : CM (complete main)
Format settings, Endianness : Big
Codec ID : A_AC3
Duration : 1h 46mn
Bit rate mode : Constant
Bit rate : 640 Kbps
Channel(s) : 6 channels
Channel positions : Front: L C R, Side: L R, LFE
Sampling rate : 48.0 KHz
Bit depth : 16 bits
Compression mode : Lossy
Stream size : 487 MiB (12%)
Language : English
Default : No
Forced : No
Text #1
ID : 4
Format : UTF-8
Codec ID : S_TEXT/UTF8
Codec ID/Info : UTF-8 Plain Text
Language : Russian
Default : No
Forced : No
Text #2
ID : 5
Format : UTF-8
Codec ID : S_TEXT/UTF8
Codec ID/Info : UTF-8 Plain Text
Language : English
Default : No
Forced : No
Скриншоты
Скачать

Скачать торрент!

Как скачивать? · Что такое торрент? · Рейтинг и ограничения

Сайт не распространяет и не хранит электронные версии произведений, а лишь предоставляет доступ к создаваемому пользователями каталогу ссылок на торрент-файлы, которые содержат только списки хеш-сумм

[Профиль] [ЛС]
Показать сообщения:    
Ответить на тему

Текущее время: Сегодня 13:50

Часовой пояс: GMT + 4



Вы не можете начинать темы
Вы не можете отвечать на сообщения
Вы не можете редактировать свои сообщения
Вы не можете удалять свои сообщения
Вы не можете голосовать в опросах
Вы не можете прикреплять файлы к сообщениям
Вы не можете скачивать файлы