Отчаянный / Anjaan (Н. Лингасвами / N. Linguswamy, Суреш / Suresh) [2014, Индия, Боевик, драма, мелодрама, DVDRip] Sub Rus (jyoti) + Original (tamil)

Ответить на тему
 
Автор Сообщение

user ®

Стаж: 12 лет

Сообщений: 15092

Пост Пост: #1 от 01-Фев-2015 20:27

[Цитировать]

Отчаянный / Anjaan
-Страна: Индия
Жанр: Боевик, драма, мелодрама
Год выпуска: 2014
Продолжительность: 02:27:33--Язык: Хинди
Перевод: Субтитры
Cубтитры: Русские
Перевод и редакция: jyoti--Режиссеры: Н. Лингасвами / N. Linguswamy, Суреш / Suresh-В ролях: Сурья Шивакумар, Саманта, Видьют Джамвал, Маной Баджпаи, Сури, Читрангада Сингх, Мариам Закария, Санджана Сингх, Мурли Шарма, Четан Хансрадж--Описание: В Мумбаи из Ченная приехал парень, разыскивающий своего пропавшего брата Раджу. Но его расспросы вызвали панику среди местных бандитов. Кто б подумал: братом застенчивого очкарика с костылем оказался крутой гангстер Брат Раджу! Но гангстер исчез, и, похоже, многие в этом городе не хотят, чтоб кто-то ворошил недавнее прошлое. (jyoti)-- | --Качество видео: DVDRip
Формат видео: AVI-Видео: 720x304 (2.37:1), 23.976 fps, XviD build 50 ~1665 kbps avg, 0.32 bit/pixel
Аудио: 48 kHz, AC3 Dolby Digital, 3/2 (L,C,R,l,r) + LFE ch, ~448 kbps
Формат субтитров: hardsub (неотключаемые, вшитые в картинку)--Сэмпл / Sample--Перевод, редакция: jyoti (спасибо!)
Риппер: soso4eg-- -
-
-Скриншот с названием:
-
Скриншоты:
-
MI
Общее
Полное имя : W:\Otchayannyi.2014.DVDRip.XviD.BwTorrents.avi
Формат : AVI
Формат/Информация : Audio Video Interleave
Профиль формата : OpenDML
Размер файла : 2,19 Гбайт
Продолжительность : 2 ч. 27 м.
Общий поток : 2120 Кбит/сек
Название фильма : Anjaan.2014.DVDRip.XviD.BwTorrents
Режиссёр : soso4eg
Программа кодирования : VirtualDubMod 1.5.10.2 (build 2540/release)
Формат оригинала/Имя : Tamil
Правообладатель : BwTorrents.Ru
Примечание : пер. суб. jyoti
Видео
Идентификатор : 0
Формат : MPEG-4 Visual
Профиль формата : Advanced Simple@L5
Параметр BVOP формата : 2
Параметр QPel формата : Нет
Параметр GMC формата : Без точки перехода
Параметр матрицы формата : Default (MPEG)
Идентификатор кодека : XVID
Идентификатор кодека/Подсказка : XviD
Продолжительность : 2 ч. 27 м.
Битрейт : 1661 Кбит/сек
Ширина : 720 пикселей
Высота : 304 пикселя
Соотношение сторон : 2,35:1
Частота кадров : 23,976 кадра/сек
Цветовое пространство : YUV
Субдискретизация насыщенности : 4:2:0
Битовая глубина : 8 бит
Тип развёртки : Прогрессивная
Метод сжатия : С потерями
Бит/(Пиксели*Кадры) : 0.316
Размер потока : 1,71 Гбайт (78%)
Библиотека кодирования : XviD 1.2.1 (UTC 2008-12-04)
Аудио
Идентификатор : 1
Формат : AC-3
Формат/Информация : Audio Coding 3
Расширение режима : CM (complete main)
Параметр Endianness формата : Big
Идентификатор кодека : 2000
Продолжительность : 2 ч. 27 м.
Вид битрейта : Постоянный
Битрейт : 448 Кбит/сек
Каналы : 6 каналов
Расположение каналов : Front: L C R, Side: L R, LFE
Частота : 48,0 КГц
Битовая глубина : 16 бит
Метод сжатия : С потерями
Размер потока : 473 Мбайт (21%)
Выравнивание : Разделение по промежуткам
Продолжительность промежутка : 42 мс. (1,00 видеокадр)
Время предзагрузки промежутка : 500 мс.
-
Скачать

Скачать торрент! Отчаянный / Anjaan (Н. Лингасвами / N. Linguswamy, Суреш / Suresh) [2014, Индия, Боевик, драма, мелодрама, DVDRip] Sub Rus (jyoti) + Original (tamil)

Как скачивать? · Что такое торрент? · Рейтинг и ограничения

Сайт не распространяет и не хранит электронные версии произведений, а лишь предоставляет доступ к создаваемому пользователями каталогу ссылок на торрент-файлы, которые содержат только списки хеш-сумм

[Профиль] [ЛС]
Показать сообщения:    
Ответить на тему

Текущее время: Сегодня 06:03

Часовой пояс: GMT + 4



Вы не можете начинать темы
Вы не можете отвечать на сообщения
Вы не можете редактировать свои сообщения
Вы не можете удалять свои сообщения
Вы не можете голосовать в опросах
Вы не можете прикреплять файлы к сообщениям
Вы не можете скачивать файлы