8 новых свиданий (Марюс Вайсберг) [2014, Комедия, WEB-DL 720p, AVC]

Ответить на тему
 
Автор Сообщение

user ®

Стаж: 7 лет 7 месяцев

Сообщений: 20008

Пост Пост: #1 от 01-Фев-2015 14:15

[Цитировать]

8 новых свиданий
Жанр: Комедия
Год выпуска: 2014
Продолжительность: 01:23:55
Режиссёр: Марюс Вайсберг
В ролях: Оксана Акиньшина, Владимир Зеленский, Михаил Галустян, Полина Максимова, Сергей Шнуров, Виктор Васильев
Описание: Вера и Никита женаты 3 года. В разгар очередной радостной ссоры они обмениваются категоричными мнениями о том, какими должны быть «нормальный муж» и «хорошая жена». И на следующее утро… каждый просыпается с «идеальной половинкой». У Никиты жена-блондинка с третьим размером, которая хорошо готовит; у Веры заботливый муж-бизнесмен, сам покупающий к завтраку ее любимые круасаны. С кем жить лучше, с любимым или идеальным? Будьте осторожны с желаниями — иногда они сбываются!
Доп. информация: http://www.kinopoisk.ru/film/751916/
Сэмпл: http://multi-up.com/1030360
Качество видео: WEB-DL 720p
Формат видео: MKV
Видео: MPEG-4 AVC/H.264 , 4156 kb/s , 1280x720 .
Аудио: AC3 5.1 , 384 kb/s .
MediaInfo
Общее
Уникальный идентификатор : 224734655993035607582283704768576278609 (0xA912520294452558B0C4B057F5CAD051)
Полное имя : D:\Раздачи\8.novyh.svidanij.2014.WEB-DL.720p.mkv
Формат : Matroska
Версия формата : Version 4 / Version 2
Размер файла : 2,72 Гбайт
Продолжительность : 1 ч. 23 м.
Общий поток : 4633 Кбит/сек
Дата кодирования : UTC 2015-01-31 19:40:53
Программа кодирования : mkvmerge v6.9.1 ('Blue Panther') 64bit built on Apr 18 2014 18:23:38
Библиотека кодирования : libebml v1.3.0 + libmatroska v1.4.1
Видео
Идентификатор : 1
Формат : AVC
Формат/Информация : Advanced Video Codec
Профиль формата : High@L3.1
Параметр CABAC формата : Нет
Параметр ReFrames формата : 2 кадра
Идентификатор кодека : V_MPEG4/ISO/AVC
Продолжительность : 1 ч. 23 м.
Битрейт : 4156 Кбит/сек
Ширина : 1280 пикселей
Высота : 720 пикселей
Соотношение сторон : 16:9
Режим частоты кадров : Постоянный
Частота кадров : 24,000 кадра/сек
Цветовое пространство : YUV
Субдискретизация насыщенности : 4:2:0
Битовая глубина : 8 бит
Тип развёртки : Прогрессивная
Бит/(Пиксели*Кадры) : 0.188
Размер потока : 2,44 Гбайт (90%)
Язык : English
Default : Да
Forced : Нет
Основные цвета : BT.709
Характеристики трансфера : BT.709
Коэффициенты матрицы : BT.709
colour_range : Limited
Аудио
Идентификатор : 2
Формат : AC-3
Формат/Информация : Audio Coding 3
Расширение режима : CM (complete main)
Параметр Endianness формата : Big
Идентификатор кодека : A_AC3
Продолжительность : 1 ч. 23 м.
Вид битрейта : Постоянный
Битрейт : 384 Кбит/сек
Каналы : 6 каналов
Расположение каналов : Front: L C R, Side: L R, LFE
Частота : 48,0 КГц
Битовая глубина : 16 бит
Метод сжатия : С потерями
Размер потока : 230 Мбайт (8%)
Язык : Russian
Default : Да
Forced : Нет
Меню
00:00:00.000 : en:Глава 1
00:06:40.000 : en:Глава 2
00:10:27.000 : en:Глава 3
00:14:24.000 : en:Глава 4
00:18:23.000 : en:Глава 5
00:25:25.000 : en:Глава 6
00:30:39.000 : en:Глава 7
00:35:47.000 : en:Глава 8
00:41:37.000 : en:Глава 9
00:47:12.000 : en:Глава 10
00:52:54.000 : en:Глава 11
00:59:24.000 : en:Глава 12
01:04:57.000 : en:Глава 13
01:10:01.000 : en:Глава 14
01:15:27.000 : en:Глава 15
01:19:00.000 : en:Глава 16
Скриншот c названием фильма Скриншоты
Скачать

Скачать торрент!

Как скачивать? · Что такое торрент? · Рейтинг и ограничения

Сайт не распространяет и не хранит электронные версии произведений, а лишь предоставляет доступ к создаваемому пользователями каталогу ссылок на торрент-файлы, которые содержат только списки хеш-сумм

[Профиль] [ЛС]
Показать сообщения:    
Ответить на тему

Текущее время: Сегодня 06:00

Часовой пояс: GMT + 4



Вы не можете начинать темы
Вы не можете отвечать на сообщения
Вы не можете редактировать свои сообщения
Вы не можете удалять свои сообщения
Вы не можете голосовать в опросах
Вы не можете прикреплять файлы к сообщениям
Вы не можете скачивать файлы