Маленькая смерть / The Little Death (Джошуа Лосон / Josh Lawson) [2014, Австралия, комедия, мелодрама, драма, BDRip 720p] Sub Rus, Eng + Original Eng

Ответить на тему
 
Автор Сообщение

user ®

Стаж: 7 лет 7 месяцев

Сообщений: 20008

Пост Пост: #1 от 01-Фев-2015 00:24

[Цитировать]

Маленькая смерть / The Little Death
Страна: Австралия
Жанр: комедия, мелодрама, драма
Год выпуска: 2014
Продолжительность: 01:36:22
Перевод: Субтитры Ron.Studio™
Cубтитры: русские, английские
Оригинальная аудиодорожка: английский
Режиссер: Джошуа Лосон / Josh Lawson
В ролях: Бояна Новакович, Джошуа Лосон, Дэймон Херриман, Бен Лосон, Тэсним Рок, Лиза МакКьюн, Лейчи Халм, Кейт Малвэйни, Патрик Браммалль, Т.Дж. Пауэр и другие.
Описание: Несколько комичных и трагичных историй о сексуальной жизни супружеских пар.
Доп. информация: Строго 18+
Сэмпл: http://sendfile.su/1080514
Качество видео: BDRip 720p
Формат видео: MKV
Видео: AVC, 1280x536, 2.40:1, 24.000 fps, 4986 Kbps
Аудио: DTS, 48 KHz, 1509 Kbps, 6 channels
Формат субтитров: встроенные, по умолчанию
MediaInfo
General
Unique ID : 203952612901806566592316646531384139636 (0x996FD82D5FE2E415B968A4AB7182DF74)
Complete name : H:\ФИЛЬМЫ\Маленькая смерть\Маленькая смерть.2014.720p.mkv
Format : Matroska
Format version : Version 2
File size : 4.37 GiB
Duration : 1h 36mn
Overall bit rate : 6 491 Kbps
Encoded date : UTC 2015-01-28 12:04:17
Writing application : mkvmerge v5.2.1 ('A Far Off Place') built on Jan 2 2012 23:21:10
Writing library : libebml v1.2.3 + libmatroska v1.3.0
Video
ID : 1
Format : AVC
Format/Info : Advanced Video Codec
Format profile : High@L4.1
Format settings, CABAC : Yes
Format settings, ReFrames : 9 frames
Muxing mode : Header stripping
Codec ID : V_MPEG4/ISO/AVC
Duration : 1h 36mn
Bit rate : 4 986 Kbps
Width : 1 280 pixels
Height : 536 pixels
Display aspect ratio : 2.40:1
Frame rate mode : Constant
Frame rate : 24.000 fps
Color space : YUV
Chroma subsampling : 4:2:0
Bit depth : 8 bits
Scan type : Progressive
Bits/(Pixel*Frame) : 0.303
Stream size : 3.27 GiB (75%)
Title : X264-720p
Writing library : x264 core 144 r2525 40bb568
Encoding settings : cabac=1 / ref=9 / deblock=1:-3:-3 / analyse=0x3:0x113 / me=umh / subme=10 / psy=1 / psy_rd=1.05:0.00 / mixed_ref=1 / me_range=36 / chroma_me=1 / trellis=2 / 8x8dct=1 / cqm=0 / deadzone=21,11 / fast_pskip=0 / chroma_qp_offset=-2 / threads=12 / lookahead_threads=2 / sliced_threads=0 / nr=0 / decimate=0 / interlaced=0 / bluray_compat=0 / constrained_intra=0 / bframes=9 / b_pyramid=2 / b_adapt=2 / b_bias=0 / direct=3 / weightb=1 / open_gop=0 / weightp=2 / keyint=250 / keyint_min=24 / scenecut=40 / intra_refresh=0 / rc=2pass / mbtree=0 / bitrate=4986 / ratetol=1.0 / qcomp=0.60 / qpmin=0 / qpmax=69 / qpstep=4 / cplxblur=20.0 / qblur=0.5 / ip_ratio=1.40 / pb_ratio=1.30 / aq=1:0.70
Language : English
Default : Yes
Forced : No
Audio
ID : 2
Format : DTS
Format/Info : Digital Theater Systems
Mode : 16
Format settings, Endianness : Big
Muxing mode : Header stripping
Codec ID : A_DTS
Duration : 1h 36mn
Bit rate mode : Constant
Bit rate : 1 509 Kbps
Channel count : 6 channels
Channel positions : Front: L C R, Side: L R, LFE
Sampling rate : 48.0 KHz
Bit depth : 24 bits
Compression mode : Lossy
Stream size : 1.02 GiB (23%)
Title : DTS 5.1
Language : English
Default : Yes
Forced : No
Text #1
ID : 3
Format : UTF-8
Codec ID : S_TEXT/UTF8
Codec ID/Info : UTF-8 Plain Text
Title : English
Language : English
Default : No
Forced : No
Text #2
ID : 4
Format : UTF-8
Codec ID : S_TEXT/UTF8
Codec ID/Info : UTF-8 Plain Text
Title : English (SDH)
Language : English
Default : No
Forced : No
Text #3
ID : 5
Format : UTF-8
Codec ID : S_TEXT/UTF8
Codec ID/Info : UTF-8 Plain Text
Language : Russian
Default : Yes
Forced : No
Menu
00:00:00.000 : en:00:00:00.000
00:08:38.583 : en:00:08:38.583
00:16:23.125 : en:00:16:23.125
00:25:36.833 : en:00:25:36.833
00:31:24.083 : en:00:31:24.083
00:42:40.292 : en:00:42:40.292
00:50:13.083 : en:00:50:13.083
01:00:38.417 : en:01:00:38.417
01:07:47.750 : en:01:07:47.750
01:16:12.417 : en:01:16:12.417
01:24:58.250 : en:01:24:58.250
01:30:59.750 : en:01:30:59.750
Скриншот c названием фильма Скриншоты
Скачать

Скачать торрент!

Как скачивать? · Что такое торрент? · Рейтинг и ограничения

Сайт не распространяет и не хранит электронные версии произведений, а лишь предоставляет доступ к создаваемому пользователями каталогу ссылок на торрент-файлы, которые содержат только списки хеш-сумм

[Профиль] [ЛС]
Показать сообщения:    
Ответить на тему

Текущее время: Сегодня 10:03

Часовой пояс: GMT + 4



Вы не можете начинать темы
Вы не можете отвечать на сообщения
Вы не можете редактировать свои сообщения
Вы не можете удалять свои сообщения
Вы не можете голосовать в опросах
Вы не можете прикреплять файлы к сообщениям
Вы не можете скачивать файлы