Мамы 3 (Георгий Малков, Эмиль Никогосян) [2014, комедия, семейный, WEBRip ]

Ответить на тему
 
Автор Сообщение

user ®

Стаж: 7 лет 7 месяцев

Сообщений: 20008

Пост Пост: #1 от 31-Янв-2015 10:06

[Цитировать]

Мамы 3
Жанр: комедия, семейный
Год выпуска: 2014
Продолжительность: 01:24:10
Режиссёр: Георгий Малков, Эмиль Никогосян
В ролях: Анастасия Заворотнюк, Ольга Волкова, Мария Сёмкина, Гарик Харламов, Андрей Ургант, Тимур Родригез, Евгений Сморигин, Евгений Шапошников, Кристина Орса, Захар Соколов ...
Описание: 31 декабря наши Мамы вместо того, чтобы резать оливье и смотреть «Иронию Судьбы», летят в Прагу праздновать Новый Год «по-европейски». Но самолет из-за погодных условий вынужден приземлиться в аэропорту небольшого, но очень красивого и уютного польского городка. Город встречает Мам абсолютно пустыми улицами. Новый Год для местных жителей- спокойный праздник. Наших Мам и их попутчиков это категорически не устраивает, и они решают устроить в этой «провинциальной Европе» настоящий, безбашенный Новый Год «по-нашему»… Дело за малым — найти Деда Мороза, Советское шампанское, оливье, петарды… в общем, всё, что нужно для праздника!
Доп. информация: http://www.kinopoisk.ru/film/765082/
Сэмпл: http://sendfile.su/1074002
Качество видео: WEBRip
Формат видео: AVI
Видео: 720x304 (2.37:1), 25 fps, XviD build 50 ~1931 kbps avg, 0.35 bit/pixel
Аудио: 44.1 kHz, AC3 Dolby Digital, 2/0 (L,R) ch, ~384 kbps
MediaInfo
Общее
Полное имя : C:\downloads\Видео\Mamy.Z.2014.O.WEBRip.1400MB.avi
Формат : AVI
Формат/Информация : Audio Video Interleave
Размер файла : 1,37 Гбайт
Продолжительность : 1 ч. 24 м.
Общий поток : 2326 Кбит/сек
Программа кодирования : VirtualDubMod 1.5.10.3 | www.virtualdub-fr.org || (build 2550/release)
Библиотека кодирования : VirtualDubMod build 2550/release
Видео
Идентификатор : 0
Формат : MPEG-4 Visual
Профиль формата : Advanced Simple@L5
Параметр BVOP формата : 2
Параметр QPel формата : Нет
Параметр GMC формата : Без точки перехода
Параметр матрицы формата : Default (MPEG)
Идентификатор кодека : XVID
Идентификатор кодека/Подсказка : XviD
Продолжительность : 1 ч. 24 м.
Битрейт : 1932 Кбит/сек
Ширина : 720 пикселей
Высота : 304 пикселя
Соотношение сторон : 2,35:1
Частота кадров : 25,000 кадров/сек
Цветовое пространство : YUV
Субдискретизация насыщенности : 4:2:0
Битовая глубина : 8 бит
Тип развёртки : Прогрессивная
Метод сжатия : С потерями
Бит/(Пиксели*Кадры) : 0.353
Размер потока : 1,14 Гбайт (83%)
Библиотека кодирования : XviD 1.2.1 (UTC 2008-12-04)
Аудио
Идентификатор : 1
Формат : AC-3
Формат/Информация : Audio Coding 3
Расширение режима : CM (complete main)
Параметр Endianness формата : Big
Идентификатор кодека : 2000
Продолжительность : 1 ч. 24 м.
Вид битрейта : Постоянный
Битрейт : 384 Кбит/сек
Каналы : 2 канала
Расположение каналов : Front: L R
Частота : 44,1 КГц
Битовая глубина : 16 бит
Метод сжатия : С потерями
Размер потока : 231 Мбайт (17%)
Выравнивание : Разделение по промежуткам
Продолжительность промежутка : 40 мс. (1,00 видеокадр)
Время предзагрузки промежутка : 500 мс.
Скриншот c названием фильма Скриншоты
Скачать

Скачать торрент!

Как скачивать? · Что такое торрент? · Рейтинг и ограничения

Сайт не распространяет и не хранит электронные версии произведений, а лишь предоставляет доступ к создаваемому пользователями каталогу ссылок на торрент-файлы, которые содержат только списки хеш-сумм

[Профиль] [ЛС]
Показать сообщения:    
Ответить на тему

Текущее время: Сегодня 18:08

Часовой пояс: GMT + 4



Вы не можете начинать темы
Вы не можете отвечать на сообщения
Вы не можете редактировать свои сообщения
Вы не можете удалять свои сообщения
Вы не можете голосовать в опросах
Вы не можете прикреплять файлы к сообщениям
Вы не можете скачивать файлы