Холодная гора / Cold Mountain (Энтони Мингелла / Anthony Minghella) [2003, США, Великобритания, Румыния, драма, мелодрама, военный, BDRip 720p] Dub (R5) + MVO (С.Р.И.) + Original Eng + subs (Rus, Eng)

Ответить на тему
 
Автор Сообщение

user ®

Стаж: 7 лет 7 месяцев

Сообщений: 20008

Пост Пост: #1 от 28-Янв-2015 17:42

[Цитировать]

Холодная гора / Cold Mountain- Год выпуска: 2003
Выпущено: США, Великобритания, Румыния
Жанр: драма, мелодрама, военный
Продолжительность: 02:34:26
Перевод: Профессиональный (полное дублирование) R5
+ Профессиональный (многоголосый, закадровый) С.Р.И.
Оригинальная звуковая дорожка: English
Субтитры: Russian, English-Режиссер: Энтони Мингелла / Anthony Minghella
В ролях: Джуд Лоу, Николь Кидман, Рене Зеллвегер, Брендан Глисон, Рэй Уинстон, Кэти Бейкер, Натали Портман, Филип Сеймур Хоффман, Джованни Рибизи, Дональд Сазерленд
О фильме: Кровавый период Гражданской войны в США: американский конфедерат Инман пытается добраться с линии фронта домой, в Холодную Гору (штат Северная Каролина), где оставил свою возлюбленную Аду.
Ада пытается выжить одна в разоренном тылу. На помощь ей приходит бродяжка Руби, которая учит светскую барышню азам ведения хозяйства...-SbR!
Релиз:
Формат: MKV
Источник: 1080p ESP Blu-ray AVC DTS-HD MA 5.1-TayTO
Видео: 1280x548 at 23.976 fps, x264@L4.1, 2pass, ~9000 kbps avg
Аудио #1: Russian: 48 kHz, AC3, 3/2 (L,C,R,l,r) + LFE ch, ~384 kbps avg |Дубляж, R5|
Аудио #2: Russian: 48 kHz, DTS, 3/2 (L,C,R,l,r) + LFE ch, ~755 kbps avg |Многоголосый закадровый, С.Р.И.|
Аудио #3: English: 48 kHz, DTS, 3/2 (L,C,R,l,r) + LFE ch, ~1509 kbps avg
Семпл-Encode vs Source vs Old Encode
-
mInfo
Формат : Matroska
Версия формата : Version 4 / Version 2
Размер файла : 12,6 Гбайт
Продолжительность : 2 ч. 34 м.
Общий поток : 11,6 Мбит/сек
Название фильма : Cold Mountain (2003) - Release for HDCLUB by SbR
Дата кодирования : UTC 2014-08-04 05:18:14
Программа кодирования : mkvmerge v7.1.0 ('Good Love') 64bit built on Jul 27 2014 13:06:55
Библиотека кодирования : libebml v1.3.0 + libmatroska v1.4.1
DURATION : 02:33:40.000000000
NUMBER_OF_FRAMES : 1717
NUMBER_OF_BYTES : 56714
_STATISTICS_WRITING_APP : mkvmerge v7.1.0 ('Good Love') 64bit built on Jul 27 2014 13:06:55
_STATISTICS_WRITING_DATE_UTC : 2014-08-04 05:18:14
_STATISTICS_TAGS : BPS DURATION NUMBER_OF_FRAMES NUMBER_OF_BYTES
Attachment : Yes / Yes
Видео
Идентификатор : 1
Формат : AVC
Формат/Информация : Advanced Video Codec
Профиль формата : High@L4.1
Параметр CABAC формата : Да
Параметр ReFrames формата : 11 кадров
Идентификатор кодека : V_MPEG4/ISO/AVC
Продолжительность : 2 ч. 34 м.
Битрейт : 9000 Кбит/сек
Ширина : 1280 пикселей
Высота : 548 пикселей
Соотношение сторон : 2,35:1
Режим частоты кадров : Постоянный
Частота кадров : 23,976 кадра/сек
Цветовое пространство : YUV
Субдискретизация насыщенности : 4:2:0
Битовая глубина : 8 бит
Тип развёртки : Прогрессивная
Бит/(Пиксели*Кадры) : 0.535
Размер потока : 9,46 Гбайт (75%)
Заголовок : Release for HDCLUB
Библиотека кодирования : x264 core 142 r2431+42 c69a006 tMod [8-bit@4:2:0 X86_64]
Настройки программы : cabac=1 / ref=11 / deblock=1:-2:-2 / analyse=0x3:0x133 / me=umh / subme=11 / psy=1 / fade_compensate=0.00 / psy_rd=1.00:0.00 / mixed_ref=1 / me_range=32 / chroma_me=1 / trellis=2 / 8x8dct=1 / cqm=0 / deadzone=21,11 / fast_pskip=0 / chroma_qp_offset=-2 / threads=12 / lookahead_threads=3 / sliced_threads=0 / nr=0 / decimate=1 / interlaced=0 / bluray_compat=0 / constrained_intra=0 / fgo=0 / bframes=10 / b_pyramid=2 / b_adapt=2 / b_bias=0 / direct=3 / weightb=1 / open_gop=0 / weightp=2 / keyint=250 / keyint_min=23 / scenecut=40 / intra_refresh=0 / rc_lookahead=120 / rc=2pass / mbtree=1 / bitrate=9000 / ratetol=1.0 / qcomp=0.80 / qpmin=0:0:0 / qpmax=69:69:69 / qpstep=4 / cplxblur=20.0 / qblur=0.5 / vbv_maxrate=62500 / vbv_bufsize=78125 / nal_hrd=none / filler=0 / ip_ratio=1.10 / aq=4:0.70 / aq-sensitivity=11.00 / aq-factor=1.00:1.00:1.00 / aq2=1:0.60 / aq2-sensitivity=9.00 / aq2-factor=1.00:1.00:1.00 / aq3=1:[0.60:0.60]:[0.60:0.60]:[0.60:0.60]:[0.60:0.60] / aq3-sensitivity=10.00 / aq3-factor=[1.00:1.00]:[1.00:1.00]:[1.00:1.00] / aq3-boundary=192:64:24
Язык : English
Default : Да
Forced : Нет
Основные цвета : BT.709
Характеристики трансфера : BT.709
Коэффициенты матрицы : BT.709
Аудио #1
Идентификатор : 2
Формат : AC-3
Формат/Информация : Audio Coding 3
Расширение режима : CM (complete main)
Параметр Endianness формата : Big
Идентификатор кодека : A_AC3
Продолжительность : 2 ч. 34 м.
Вид битрейта : Постоянный
Битрейт : 384 Кбит/сек
Каналы : 6 каналов
Расположение каналов : Front: L C R, Side: L R, LFE
Частота : 48,0 КГц
Битовая глубина : 16 бит
Метод сжатия : С потерями
Размер потока : 424 Мбайт (3%)
Заголовок : Dub, R5
Язык : Russian
Default : Да
Forced : Нет
Аудио #2
Идентификатор : 3
Формат : DTS
Формат/Информация : Digital Theater Systems
Режим : 16
Параметр Endianness формата : Big
Идентификатор кодека : A_DTS
Продолжительность : 2 ч. 34 м.
Вид битрейта : Постоянный
Битрейт : 755 Кбит/сек
Каналы : 6 каналов
Расположение каналов : Front: L C R, Side: L R, LFE
Частота : 48,0 КГц
Битовая глубина : 24 бит
Метод сжатия : С потерями
Размер потока : 833 Мбайт (6%)
Заголовок : MVO, С.Р.И.
Язык : Russian
Default : Нет
Forced : Нет
Аудио #3
Идентификатор : 4
Формат : DTS
Формат/Информация : Digital Theater Systems
Режим : 16
Параметр Endianness формата : Big
Идентификатор кодека : A_DTS
Продолжительность : 2 ч. 34 м.
Вид битрейта : Постоянный
Битрейт : 1509 Кбит/сек
Каналы : 6 каналов
Расположение каналов : Front: L C R, Side: L R, LFE
Частота : 48,0 КГц
Битовая глубина : 24 бит
Метод сжатия : С потерями
Размер потока : 1,63 Гбайт (13%)
Язык : English
Default : Нет
Forced : Нет
Текст #1
Идентификатор : 5
Формат : UTF-8
Идентификатор кодека : S_TEXT/UTF8
Идентификатор кодека/Информация : UTF-8 Plain Text
Язык : Russian
Default : Да
Forced : Нет
Текст #2
Идентификатор : 6
Формат : UTF-8
Идентификатор кодека : S_TEXT/UTF8
Идентификатор кодека/Информация : UTF-8 Plain Text
Язык : Russian
Default : Нет
Forced : Нет
Текст #3
Идентификатор : 7
Формат : UTF-8
Идентификатор кодека : S_TEXT/UTF8
Идентификатор кодека/Информация : UTF-8 Plain Text
Язык : English
Default : Нет
Forced : Нет
Меню
00:00:00.000 : en:"A Design for Each and Every One of Us"
00:05:21.154 : en:"This World Won't Stand Long"
00:09:12.343 : en:Chain Gang
00:14:39.295 : en:"The Tribes of Israel are About to Flee"
00:16:55.848 : en:"You Never Wrapped Your Legs Around This Inman"
00:22:45.406 : en:Ferry Crossing
00:27:43.328 : en:Black Cove Catastrophe
00:34:15.469 : en:"I'm a Man of God"
00:41:54.554 : en:"My Name Is Ruby Thewes"
00:46:21.237 : en:Ada at the Well
00:49:43.939 : en:Back to Cold Mountain
00:52:21.513 : en:Bitter Chapters of Time
00:54:47.909 : en:"We Got Our War!"
00:56:59.123 : en:Heroes for the Cause
01:01:04.160 : en:"If it Were Enough Just to Stand"
01:05:09.738 : en:Play Something Sweet
01:13:08.259 : en:"It's a Turkey Shoot!"
01:19:25.386 : en:"Inman Speaks"
01:23:37.054 : en:The Siege of Petersburg
01:28:58.625 : en:"Ruby with the Eyes That Sparkle"
01:35:46.073 : en:"Lie Here Next to Me"
01:46:48.027 : en:"Yankees are Coming"
01:52:12.184 : en:"A Cloud Over the Land"
02:00:43.236 : en:Lost and Found
02:08:43.132 : en:"I Marry You, I Marry You, I Marry You"
02:16:17.795 : en:"There Will Be a Reckoning"
02:24:20.860 : en:Making Peace with the Past
02:27:30.799 : en:End Credits
-
Скачать

Скачать торрент!

Как скачивать? · Что такое торрент? · Рейтинг и ограничения

Сайт не распространяет и не хранит электронные версии произведений, а лишь предоставляет доступ к создаваемому пользователями каталогу ссылок на торрент-файлы, которые содержат только списки хеш-сумм

[Профиль] [ЛС]
Показать сообщения:    
Ответить на тему

Текущее время: Сегодня 09:01

Часовой пояс: GMT + 4



Вы не можете начинать темы
Вы не можете отвечать на сообщения
Вы не можете редактировать свои сообщения
Вы не можете удалять свои сообщения
Вы не можете голосовать в опросах
Вы не можете прикреплять файлы к сообщениям
Вы не можете скачивать файлы