Фар Лэп / Phar Lap (Саймон Уинсер / Simon Wincer) [1983, Австралия, драма, биография, спорт, BDRip 1080p] DVO + Original + Sub (rus forced, eng)

Ответить на тему
 
Автор Сообщение

user ®

Стаж: 7 лет 7 месяцев

Сообщений: 20008

Пост Пост: #1 от 28-Янв-2015 17:42

[Цитировать]

Фар Лэп: Путь к победе / Phar Lap Памяти Фар Лэпапосвящается-«Герой нации» Год выпуска: 1983
Страна: Австралия
Жанр: Драма, Биография, Спорт
Продолжительность: 01:57:36
Перевод: Профессиональный (двухголосый, закадровый, Первый Канал)
Русские субтитры: Да. Форсированные. Места без беревода.
Английские субтитры: Да
Режиссер: Саймон Уинсер
В ролях: Том Берлинсон, Стивен Бэннистер, Ричард Морган, Роберт Грубб, Саймон Уэллс, Джастин Ридли, Мартин Вон, Селия Де Бург
Описание: Фар Лэп, ласково называемый Бобби, ослабевает и умирает в Калифорнии, в 1932 году. Новость вызывает глубокую печаль и скорбь в Австралии. Оставшаяся часть фильма сделана как возврат в прошлое.
Пятью годами раньше Фар Лэп прибыл в Австралию, его приобрели в Новой Зеландии ранее не видя. Его тренер Гарри Телфорд и владелец Дейв Дэвис следили как его на поводу сводят на пристань. Дэвиса не впечатлила внешность скакуна и он отдал Телфорду распоряжение немедленно продать лошадь. Телфорд выразил протест, заявив, что лошадь судя по её родословной является исключительным скакуном. Дэвис соглашается оставить её Телфорду на три года, сохраняя за собой право на одну треть от выигрышей на скачках. При этом Телфорд должен был сам платить за содержание лошади.
Первые гонки Фар Лэп проиграл, но вера Телфорда в животное была непоколебима. Помощник конюха Томми Вудок обожал своего подопечного. Уход, тренировки и любовь сделали свое дело. Неожиданно для многих Фар Лэп стал чемпионом страны. А впереди намечались и более ответственные соревнования.

Дополнительная информация: Wikipedia Eng
Доп. информация: Приспособил русский перевод с тв-рипа от [url=http://***/forum/profile.php?mode=viewprofile&u=819894]zootech[/url] Спасибо ему за него.
Спасибо за перевод субтитров [url=http://***/forum/profile.php?mode=viewprofile&u=21131053]М_Васильев[/url]
Совместный релиз групп:

Сэмпл: Сэмпл
Качество: BDRip
Формат: MKV
Видео кодек: x264
Аудио кодек: AC3, DTS
Видео: 1 920x800 (2,40:1), 24,000 fps, x264 ~9126 Кбит/сек avg, 0.248 bit/pixel, Прогрессивная
Аудио: #1: 48 kHz, AC3 Dolby Digital, 2/0 (L,R) ch, ~192.00 kbps avg - двухголосый, закадровый
Аудио: #2: 48 kHz, DTS Digital Theater Systems, 3/2 (L,C,R,l,r) + LFE ch, ~1 510 kbps avg - оригинал

Скриншоты MediaInfo
Общее
Уникальный идентификатор : 210787057501346109076111366898585226712 (0x9E941C4FD485BDDB9E2926940BB8CDD8)
Полное имя : E:\Фильмы\Phar.Lap.1983.1080p.BluRay.x264.mkv
Формат : Matroska
Версия формата : Version 2
Размер файла : 8,89 Гбайт
Продолжительность : 1 ч. 57 м.
Общий поток : 10,8 Мбит/сек
Дата кодирования : UTC 2015-01-27 05:33:06
Программа кодирования : mkvmerge v3.0.0 ('Hang up your Hang-Ups') built on Jan 6 2010 22:49:38
Библиотека кодирования : libebml v0.7.9 + libmatroska v0.8.1
Видео
Идентификатор : 1
Формат : AVC
Формат/Информация : Advanced Video Codec
Профиль формата : High@L4.1
Параметр CABAC формата : Да
Параметр ReFrames формата : 5 кадров
Идентификатор кодека : V_MPEG4/ISO/AVC
Продолжительность : 1 ч. 57 м.
Битрейт : 9126 Кбит/сек
Ширина : 1920 пикселей
Высота : 800 пикселей
Соотношение сторон : 2,40:1
Частота кадров : 24,000 кадра/сек
Цветовое пространство : YUV
Субдискретизация насыщенности : 4:2:0
Битовая глубина : 8 бит
Тип развёртки : Прогрессивная
Бит/(Пиксели*Кадры) : 0.248
Размер потока : 7,32 Гбайт (82%)
Библиотека кодирования : x264 core 142 r2389 956c8d8
Настройки программы : cabac=1 / ref=5 / deblock=1:0:0 / analyse=0x3:0x133 / me=umh / subme=8 / psy=1 / psy_rd=1.00:0.00 / mixed_ref=1 / me_range=16 / chroma_me=1 / trellis=1 / 8x8dct=1 / cqm=0 / deadzone=21,11 / fast_pskip=0 / chroma_qp_offset=-2 / threads=12 / lookahead_threads=2 / sliced_threads=0 / nr=0 / decimate=1 / interlaced=0 / bluray_compat=0 / constrained_intra=0 / bframes=3 / b_pyramid=2 / b_adapt=1 / b_bias=0 / direct=1 / weightb=1 / open_gop=0 / weightp=2 / keyint=250 / keyint_min=24 / scenecut=40 / intra_refresh=0 / rc_lookahead=40 / rc=2pass / mbtree=1 / bitrate=9126 / ratetol=1.0 / qcomp=0.60 / qpmin=0 / qpmax=69 / qpstep=4 / cplxblur=20.0 / qblur=0.5 / ip_ratio=1.40 / aq=1:1.00
Язык : English
Default : Нет
Forced : Нет
Аудио #1
Идентификатор : 2
Формат : AC-3
Формат/Информация : Audio Coding 3
Расширение режима : CM (complete main)
Параметр Endianness формата : Big
Идентификатор кодека : A_AC3
Продолжительность : 1 ч. 57 м.
Вид битрейта : Постоянный
Битрейт : 192 Кбит/сек
Каналы : 2 канала
Расположение каналов : Front: L R
Частота : 48,0 КГц
Битовая глубина : 16 бит
Метод сжатия : С потерями
Размер потока : 162 Мбайт (2%)
Язык : Russian
Default : Да
Forced : Нет
Аудио #2
Идентификатор : 3
Формат : DTS
Формат/Информация : Digital Theater Systems
Идентификатор кодека : A_DTS
Продолжительность : 1 ч. 57 м.
Вид битрейта : Постоянный
Битрейт : 1510 Кбит/сек
Каналы : 6 каналов
Расположение каналов : Front: L C R, Side: L R, LFE
Частота : 48,0 КГц
Битовая глубина : 16 бит
Метод сжатия : С потерями
Задержка видео : 11 мс.
Размер потока : 1,24 Гбайт (14%)
Язык : English
Default : Нет
Forced : Нет
Текст #1
Идентификатор : 4
Формат : UTF-8
Идентификатор кодека : S_TEXT/UTF8
Идентификатор кодека/Информация : UTF-8 Plain Text
Язык : Russian
Default : Да
Forced : Да
Текст #2
Идентификатор : 5
Формат : UTF-8
Идентификатор кодека : S_TEXT/UTF8
Идентификатор кодека/Информация : UTF-8 Plain Text
Язык : English
Default : Нет
Forced : Нетт
Раздача
Скачать

Скачать торрент!

Как скачивать? · Что такое торрент? · Рейтинг и ограничения

Сайт не распространяет и не хранит электронные версии произведений, а лишь предоставляет доступ к создаваемому пользователями каталогу ссылок на торрент-файлы, которые содержат только списки хеш-сумм

[Профиль] [ЛС]
Показать сообщения:    
Ответить на тему

Текущее время: Сегодня 00:27

Часовой пояс: GMT + 4



Вы не можете начинать темы
Вы не можете отвечать на сообщения
Вы не можете редактировать свои сообщения
Вы не можете удалять свои сообщения
Вы не можете голосовать в опросах
Вы не можете прикреплять файлы к сообщениям
Вы не можете скачивать файлы