Наоборот / Всё наоборот / Vice Versa (Брайан Гилберт / Brian Gilbert) [1988, США, фэнтези, комедия, WEB-DL 1080p] MVO + AVO (Вартан Дохалов) + Sub Eng + Original Eng

Ответить на тему
 
Автор Сообщение

user ®

Стаж: 7 лет 7 месяцев

Сообщений: 20008

Пост Пост: #1 от 28-Янв-2015 17:42

[Цитировать]

Наоборот / Всё наоборот / Vice Versa
Страна: США
Жанр: фэнтези, комедия
Год выпуска: 1988
Продолжительность: 01:38:33
Перевод 1: Профессиональный (многоголосый закадровый)
Перевод 2: Авторский (одноголосый закадровый) Вартан Дохалов
Cубтитры: английские
Оригинальная аудиодорожка: английский
Режиссер: Брайан Гилберт / Brian Gilbert
В ролях: Джадж Райнхолд, Фред Сэвэдж, Коринн Борер, Свузи Кёрц, Джейн Качмарек, Дэвид Провэл, Уильям Принц, Глория Гиффорд, Беверли Арчер, Гарри С. Мёрфи...
Описание: Во время поездки на восток в руках Маршала, обыкновенного служащего из универмага, случайно оказывается таинственный череп, украшенный орнаментом.
Под действием его магических сил Маршал и его одиннадцатилетний сын обмениваются телами, и начинается целая череда смешных недоразумений. Ко всему прочему, за волшебным амулетом охотится парочка международных авантюристов…
Сэмпл: http://multi-up.com/1029506
Тип релиза: WEB-DL 1080p
Контейнер: MKV
Видео: 1916x1076 (16:9), 23.976 fps, AVC, ~5124 Kbps, 0.104 bits/pixel
Аудио 1: Russian, 48.0 KHz, AC3, 2 ch, 192 Kbps
Аудио 2: Russian, 48.0 KHz, AC3, 2 ch, 192 Kbps - Вартан Дохалов
Аудио 3: English, 48.0 KHz, AC3, 2 ch, 192 Kbps

MediaInfo
General
Unique ID : 203767282597468513230721000650395392893 (0x994C26B01177E6A3A7698A54E01C9B7D)
Complete name : C:\Vice Versa.mkv
Format : Matroska
Format version : Version 4 / Version 2
File size : 4.00 GiB
Duration : 1h 38mn
Overall bit rate : 5 815 Kbps
Encoded date : UTC 2015-01-27 14:37:40
Writing application : mkvmerge v7.5.0 ('Glass Culture') 64bit built on Jan 4 2015 16:48:44
Writing library : libebml v1.3.1 + libmatroska v1.4.2
DURATION : 01:33:02.840000000
NUMBER_OF_FRAMES : 1067
NUMBER_OF_BYTES : 41390
_STATISTICS_WRITING_APP : mkvmerge v7.5.0 ('Glass Culture') 64bit built on Jan 4 2015 16:48:44
_STATISTICS_WRITING_DATE_UT : 2015-01-27 14:37:40
_STATISTICS_TAGS : BPS DURATION NUMBER_OF_FRAMES NUMBER_OF_BYTES
Video
ID : 1
Format : AVC
Format/Info : Advanced Video Codec
Format profile : High@L4.0
Format settings, CABAC : Yes
Format settings, ReFrames : 4 frames
Codec ID : V_MPEG4/ISO/AVC
Duration : 1h 38mn
Bit rate : 5 124 Kbps
Width : 1 916 pixels
Height : 1 076 pixels
Display aspect ratio : 16:9
Frame rate mode : Constant
Frame rate : 23.976 fps
Color space : YUV
Chroma subsampling : 4:2:0
Bit depth : 8 bits
Scan type : Progressive
Bits/(Pixel*Frame) : 0.104
Stream size : 3.53 GiB (88%)
Language : English
Default : Yes
Forced : No
Color primaries : BT.709
Transfer characteristics : BT.709
Matrix coefficients : BT.709
Color range : Limited
Audio #1
ID : 2
Format : AC-3
Format/Info : Audio Coding 3
Format profile : Dolby Digital
Mode extension : CM (complete main)
Format settings, Endianness : Big
Codec ID : A_AC3
Duration : 1h 38mn
Bit rate mode : Constant
Bit rate : 192 Kbps
Channel(s) : 2 channels
Channel positions : Front: L R
Sampling rate : 48.0 KHz
Bit depth : 16 bits
Compression mode : Lossy
Stream size : 135 MiB (3%)
Language : Russian
Default : Yes
Forced : No
Audio #2
ID : 3
Format : AC-3
Format/Info : Audio Coding 3
Mode extension : CM (complete main)
Format settings, Endianness : Big
Codec ID : A_AC3
Duration : 1h 38mn
Bit rate mode : Constant
Bit rate : 192 Kbps
Channel(s) : 2 channels
Channel positions : Front: L R
Sampling rate : 48.0 KHz
Bit depth : 16 bits
Compression mode : Lossy
Stream size : 135 MiB (3%)
Title : Вартан Дохалов
Language : Russian
Default : No
Forced : No
Audio #3
ID : 4
Format : AC-3
Format/Info : Audio Coding 3
Format profile : Dolby Digital
Mode extension : CM (complete main)
Format settings, Endianness : Big
Codec ID : A_AC3
Duration : 1h 38mn
Bit rate mode : Constant
Bit rate : 192 Kbps
Channel(s) : 2 channels
Channel positions : Front: L R
Sampling rate : 48.0 KHz
Bit depth : 16 bits
Compression mode : Lossy
Stream size : 135 MiB (3%)
Language : English
Default : No
Forced : No
Text
ID : 5
Format : UTF-8
Codec ID : S_TEXT/UTF8
Codec ID/Info : UTF-8 Plain Text
Language : English
Default : No
Forced : No
Скриншоты
Скачать

Скачать торрент!

Как скачивать? · Что такое торрент? · Рейтинг и ограничения

Сайт не распространяет и не хранит электронные версии произведений, а лишь предоставляет доступ к создаваемому пользователями каталогу ссылок на торрент-файлы, которые содержат только списки хеш-сумм

[Профиль] [ЛС]
Показать сообщения:    
Ответить на тему

Текущее время: Сегодня 06:58

Часовой пояс: GMT + 4



Вы не можете начинать темы
Вы не можете отвечать на сообщения
Вы не можете редактировать свои сообщения
Вы не можете удалять свои сообщения
Вы не можете голосовать в опросах
Вы не можете прикреплять файлы к сообщениям
Вы не можете скачивать файлы