Зачётный препод / Fack ju Göhte (Бора Дагтекин / Bora Dagtekin) [2013, Германия, комедия, BDRip 720p] Dub + VO (М.Яроцкий) + Sub Rus, Ger, Eng + Original Ger

Ответить на тему
 
Автор Сообщение

user ®

Стаж: 7 лет 7 месяцев

Сообщений: 20008

Пост Пост: #1 от 28-Янв-2015 17:42

[Цитировать]

Зачётный препод / Fack ju Göhte
Страна: Германия
Жанр: комедия
Год выпуска: 2013
Продолжительность: 01:57:08
Перевод: Профессиональный (дублированный)
Перевод 2: Одноголосый закадровый - М.Яроцкий
Cубтитры: Rus, Ger, Eng
Оригинальная аудиодорожка: немецкий
Режиссер: Бора Дагтекин / Bora Dagtekin
В ролях: Элиас ЭмБарек, Каролина Херфурт, Катя Риман, Яна Палласке, Алвара Хёфельс и др.
Описание: Незадачливый грабитель банков Зеки Мюллер после тринадцати месяцев отсидки выходит из тюрьмы. Он отправляется на поиски награбленной добычи, которая была спрятана на стройке. Вместе с подружкой они думали, что там идёт всего-навсего прокладка труб. Каково же удивление горе-грабителя, когда он обнаруживает на нужном месте новенький школьный спортзал!
Чтобы добраться до награбленного, Зеки пытается устроиться на место школьного сторожа. Но в результате лёгкого недопонимания вместо этого его берут в качестве учителя на замену. Ему достаётся самый буйный и ненормальный класс во всей школе — 10 «Б». Используя несколько необычные методы, бывший грабитель неожиданно находит общий язык с учениками. Одновременно с этим по ночам он пытается добраться до спрятанной добычи и влюбляется в коллегу-учительницу Лиси.
Доп. информация: Перевод М.Яроцкого доступен благодаря whip93, MrRose, будулайроманов, dikii.

Тип релиза: BDRip 720p
Контейнер: MKV
Видео: MPEG-4 AVC, 6000 Кбит/с, 1280x544, 24,000 fps
Аудио: Rus, AC3, 448 kb/s (6 ch), 48 kHz
Аудио 2: Rus, DTS, 1510 kb/s (6 ch), 48 kHz - М.Яроцкий
Аудио 3: Ger, DTS, 1510 kb/s (6 ch), 48 kHz
Формат субтитров: softsub (SRT)
MediaInfo
Format : Matroska
Format version : Version 4 / Version 2
File size : 7.90 GiB
Duration : 1h 57mn
Overall bit rate : 9 660 Kbps
Movie name : Tonik
Encoded date : UTC 2015-01-27 17:56:39
Writing application : mkvmerge v7.1.0 ('Good Love') 64bit built on Jul 27 2014 13:06:55
Writing library : libebml v1.3.0 + libmatroska v1.4.1
_STATISTICS_WRITING_APP : mkvmerge v7.1.0 ('Good Love') 64bit built on Jul 27 2014 13:06:55
_STATISTICS_WRITING_DATE_UTC : 2015-01-27 17:56:39
_STATISTICS_TAGS : BPS DURATION NUMBER_OF_FRAMES NUMBER_OF_BYTES
DURATION : 01:48:09.866000000
NUMBER_OF_FRAMES : 1313
NUMBER_OF_BYTES : 90478
Attachment : Yes
Video
ID : 1
Format : AVC
Format/Info : Advanced Video Codec
Format profile : High@L4.1
Format settings, CABAC : Yes
Format settings, ReFrames : 8 frames
Codec ID : V_MPEG4/ISO/AVC
Duration : 1h 57mn
Bit rate : 6 002 Kbps
Width : 1 280 pixels
Height : 544 pixels
Display aspect ratio : 2.35:1
Frame rate mode : Constant
Frame rate : 24.000 fps
Color space : YUV
Chroma subsampling : 4:2:0
Bit depth : 8 bits
Scan type : Progressive
Bits/(Pixel*Frame) : 0.359
Stream size : 4.91 GiB (62%)
Writing library : x264 core 142 r2431kMod ac76440
Encoding settings : cabac=1 / ref=8 / deblock=1:-3:-3 / analyse=0x3:0x133 / me=umh / subme=10 / psy=1 / fade_compensate=0.00 / psy_rd=1.07:0.00 / mixed_ref=1 / me_range=24 / chroma_me=1 / trellis=2 / 8x8dct=1 / cqm=0 / deadzone=21,11 / fast_pskip=0 / chroma_qp_offset=-2 / threads=12 / lookahead_threads=2 / sliced_threads=0 / nr=0 / decimate=0 / interlaced=0 / bluray_compat=0 / constrained_intra=0 / fgo=0 / bframes=8 / b_pyramid=2 / b_adapt=2 / b_bias=0 / direct=3 / weightb=1 / open_gop=0 / weightp=2 / keyint=230 / keyint_min=22 / scenecut=40 / intra_refresh=0 / rc_lookahead=60 / rc=crf / mbtree=0 / crf=16.6000 / qcomp=0.60 / qpmin=0 / qpmax=69 / qpstep=4 / vbv_maxrate=62500 / vbv_bufsize=78125 / crf_max=0.0 / nal_hrd=none / filler=0 / ip_ratio=1.30 / pb_ratio=1.20 / aq=3:0.80
Language : German
Default : Yes
Forced : No
_STATISTICS_WRITING_APP : mkvmerge v7.1.0 ('Good Love') 64bit built on Jul 27 2014 13:06:55
_STATISTICS_WRITING_DATE_UTC : 2015-01-27 17:56:39
_STATISTICS_TAGS : BPS DURATION NUMBER_OF_FRAMES NUMBER_OF_BYTES
DURATION : 01:57:08.917000000
NUMBER_OF_FRAMES : 168694
NUMBER_OF_BYTES : 5443718660
Audio #1
ID : 2
Format : AC-3
Format/Info : Audio Coding 3
Mode extension : CM (complete main)
Format settings, Endianness : Big
Codec ID : A_AC3
Duration : 1h 57mn
Bit rate mode : Constant
Bit rate : 448 Kbps
Channel(s) : 6 channels
Channel positions : Front: L C R, Side: L R, LFE
Sampling rate : 48.0 KHz
Bit depth : 16 bits
Compression mode : Lossy
Stream size : 375 MiB (5%)
Language : Russian
Default : Yes
Forced : No
Audio #2
ID : 3
Format : DTS
Format/Info : Digital Theater Systems
Mode : 16
Format settings, Endianness : Big
Codec ID : A_DTS
Duration : 1h 57mn
Bit rate mode : Constant
Bit rate : 1 509 Kbps
Channel(s) : 6 channels
Channel positions : Front: L C R, Side: L R, LFE
Sampling rate : 48.0 KHz
Bit depth : 24 bits
Compression mode : Lossy
Stream size : 1.23 GiB (16%)
Title : М. Яроцкий
Language : Russian
Default : No
Forced : No
Audio #3
ID : 4
Format : DTS
Format/Info : Digital Theater Systems
Mode : 16
Format settings, Endianness : Big
Codec ID : A_DTS
Duration : 1h 57mn
Bit rate mode : Constant
Bit rate : 1 509 Kbps
Channel(s) : 6 channels
Channel positions : Front: L C R, Side: L R, LFE
Sampling rate : 48.0 KHz
Bit depth : 24 bits
Compression mode : Lossy
Stream size : 1.23 GiB (16%)
Language : German
Default : No
Forced : No
Text #1
ID : 5
Format : UTF-8
Codec ID : S_TEXT/UTF8
Codec ID/Info : UTF-8 Plain Text
Language : Russian
Default : No
Forced : No
Text #2
ID : 6
Format : UTF-8
Codec ID : S_TEXT/UTF8
Codec ID/Info : UTF-8 Plain Text
Language : German
Default : No
Forced : No
Text #3
ID : 7
Format : UTF-8
Codec ID : S_TEXT/UTF8
Codec ID/Info : UTF-8 Plain Text
Language : English
Default : No
Forced : No
Menu
00:00:00.000 : en:00:00:00.000
00:05:23.125 : en:00:05:23.125
00:11:24.625 : en:00:11:24.625
00:17:38.167 : en:00:17:38.167
00:21:14.917 : en:00:21:14.917
00:26:57.792 : en:00:26:57.792
00:33:51.167 : en:00:33:51.167
00:39:11.667 : en:00:39:11.667
00:43:54.708 : en:00:43:54.708
00:49:57.083 : en:00:49:57.083
00:55:18.875 : en:00:55:18.875
01:02:29.167 : en:01:02:29.167
01:08:21.875 : en:01:08:21.875
01:13:31.042 : en:01:13:31.042
01:17:51.292 : en:01:17:51.292
01:23:37.167 : en:01:23:37.167
01:29:43.000 : en:01:29:43.000
01:34:39.875 : en:01:34:39.875
01:40:45.417 : en:01:40:45.417
01:45:19.750 : en:01:45:19.750
01:48:24.833 : en:01:48:24.833
Скриншоты Перекачайте файл, добавлены Русские субтитры.
Скачать

Скачать торрент!

Как скачивать? · Что такое торрент? · Рейтинг и ограничения

Сайт не распространяет и не хранит электронные версии произведений, а лишь предоставляет доступ к создаваемому пользователями каталогу ссылок на торрент-файлы, которые содержат только списки хеш-сумм

[Профиль] [ЛС]
Показать сообщения:    
Ответить на тему

Текущее время: Сегодня 11:43

Часовой пояс: GMT + 4



Вы не можете начинать темы
Вы не можете отвечать на сообщения
Вы не можете редактировать свои сообщения
Вы не можете удалять свои сообщения
Вы не можете голосовать в опросах
Вы не можете прикреплять файлы к сообщениям
Вы не можете скачивать файлы