Любовь в большом городе 2 (Марюс Вайсберг) [2010 г., Россия, комедия, мелодрама, фэнтези, BDRip]

Ответить на тему
 
Автор Сообщение

user ®

Стаж: 7 лет 7 месяцев

Сообщений: 20008

Пост Пост: #1 от 28-Янв-2015 14:36

[Цитировать]

Любовь в большом городе 2-
Год выпуска: 2010
Страна: Россия
Жанр: комедия, мелодрама, фэнтези
Продолжительность: 01:32:55-Режиссер: Марюс Вайсберг-В ролях: Вера Брежнева (Катя), Алексей Чадов (Артем Исаев), Настя Задорожная (Алиса Громова), Светлана Ходченкова (Анастасия Игоревна Коршун), Вилле Хаапасало (Сауна (Оле)), Владимир Зеленский (Игорь Зеленский), Филипп Киркоров (Святой Валентин), Павел Воля (таксист Гамлет), Леонид Ярмольник (отец Игоря), Игорь Верник (начальник стоматологической клиники), Равшана Куркова (Елена), Михаил Ефремов (тренер Алисы Владимир Борисович)-Описание: Игорь приглашает Сауну и Артема с возлюбленными на ранчо к отцу. Ребята смогут отдохнуть, а Игорь наконец-то познакомит Настю с будущим тестем. Друзья пакуют чемоданы.
В самолете они знакомятся с парочкой американцев, которые рассказывают им о неком монастыре на окраине города, где будут жить наши герои, святом месте, согласно древнему преданию помогающем в борьбе с бесплодием. Игорь, Артем и Сауна единодушны - к отцовству они еще не готовы. Но на экскурсию в монастырь все-таки едут. Несмотря на предупреждение монаха, друзья прикасаются к «идолу», и теперь они обречены при первом же половом акте зачать ребенка. Они озадачены - стоит верить предрассудкам или нет? На всякий случай, они решают временно воздержаться от секса. Девушки, узнав о причине такого странного поведения любимых, обижаются и уезжают.
Оставшись одни, ребята решают оттянуться по полной, но тут на их пути снова появляется святой Валентин. Он возмущен: как они могли не воспользоваться таким благословением? Рождается новое заклятие. Тот из троих, кто окажется первым в постели с женщиной, - станет отцом. Остальные смогут иметь детей лишь через 10 лет. О таком повороте событий никто и помыслить не мог. Все трое внезапно осознают, что готовы к отцовству... Приключения начинаются.-Автор рипа: Mr. Eko- -Качество: BDRip ([url=http://***/forum/viewtopic.php?t=3985109]Blu-ray Disc/1080p[/url])
Формат: AVI
Видео: 720x320 (2.25:1), 23.976 fps, XviD build 66 ~1782 kbps avg, 0.32 bit/pixel
Аудио: 48 kHz, AC3 Dolby Digital, 3/2 (L,C,R,l,r) + LFE ch, ~448 kbps
Размер: 1489.19 Mb (1/3 DVD5)
-Знаете ли Вы, что...
  • Вера Брежнева отказалась от съемок обнаженной по причине беременности.
    -
    MediaInfo
General
Complete name                            : C:\Downloads\Lyubov.V.Bolshom.Gorode.2.2010.RUS.BDRip.XviD.AC3.-Mr.Eko.avi
Format                                   : AVI
Format/Info                              : Audio Video Interleave
File size                                : 1.45 GiB
Duration                                 : 1h 32mn
Overall bit rate                         : 2 240 Kbps
Movie name                               : Любовь в большом городе 2 (2010)
Director                                 : Mr. Eko (Blu-ray Disc)
Writing application                      : VirtualDubMod 1.5.10.2 (build 2542/release)
Video
ID                                       : 0
Format                                   : MPEG-4 Visual
Format profile                           : Advanced Simple@L5
Format settings, BVOP                    : 2
Format settings, QPel                    : No
Format settings, GMC                     : No warppoints
Format settings, Matrix                  : Custom
Codec ID                                 : XVID
Codec ID/Hint                            : XviD
Duration                                 : 1h 32mn
Bit rate                                 : 1 783 Kbps
Width                                    : 720 pixels
Height                                   : 320 pixels
Display aspect ratio                     : 2.25:1
Frame rate                               : 23.976 fps
Color space                              : YUV
Chroma subsampling                       : 4:2:0
Bit depth                                : 8 bits
Scan type                                : Progressive
Compression mode                         : Lossy
Bits/(Pixel*Frame)                       : 0.323
Stream size                              : 1.16 GiB (80%)
Writing library                          : XviD 66
Audio
ID                                       : 1
Format                                   : AC-3
Format/Info                              : Audio Coding 3
Mode extension                           : CM (complete main)
Format settings, Endianness              : Big
Codec ID                                 : 2000
Duration                                 : 1h 32mn
Bit rate mode                            : Constant
Bit rate                                 : 448 Kbps
Channel(s)                               : 6 channels
Channel positions                        : Front: L C R, Side: L R, LFE
Sampling rate                            : 48.0 KHz
Bit depth                                : 16 bits
Compression mode                         : Lossy
Stream size                              : 298 MiB (20%)
Alignment                                : Split accross interleaves
Interleave, duration                     : 42 ms (1.00 video frame)
Interleave, preload duration             : 500 ms
Title                                    : RUS

-
Сравнение
Сравнение с этой [url=http://***/forum/viewtopic.php?t=4107418]раздачей[/url].
Сравнение центральных каналов русской аудиодорожки.

-
Скриншот c названием фильма
-
Скриншоты -
Скачать

Скачать торрент!

Как скачивать? · Что такое торрент? · Рейтинг и ограничения

Сайт не распространяет и не хранит электронные версии произведений, а лишь предоставляет доступ к создаваемому пользователями каталогу ссылок на торрент-файлы, которые содержат только списки хеш-сумм

[Профиль] [ЛС]
Показать сообщения:    
Ответить на тему

Текущее время: Сегодня 06:11

Часовой пояс: GMT + 4



Вы не можете начинать темы
Вы не можете отвечать на сообщения
Вы не можете редактировать свои сообщения
Вы не можете удалять свои сообщения
Вы не можете голосовать в опросах
Вы не можете прикреплять файлы к сообщениям
Вы не можете скачивать файлы