Темный мир (Антон Мегердичев) [2010, фэнтези, триллер, HDRip]

Ответить на тему
 
Автор Сообщение

user ®

Стаж: 7 лет 7 месяцев

Сообщений: 20008

Пост Пост: #1 от 27-Янв-2015 23:15

[Цитировать]

Темный мир
Жанр: Фэнтези, Триллер
Год выпуска: 2010
Продолжительность: 01:45:24
Режиссёр: Антон Мегердичев
Сценарий: Алексей Сидоров, Александр Дорбинян
Композитор: ХарДрам, Сергей Абрамов, Дмитрий Сухачев
В ролях: Светлана Иванова, Иван Жидков, Елена Панова, Сергей Угрюмов, Владимир Носик, Татьяна Кузнецова, Илья Алексеев, Мария Кожевникова, Денис Юшечкин, Ксения Радченко, Елена Лабутина, Александра Валкер, Захар Хунгуреев, Евгений Атарик, Ольга Гришова, Михаил Солодко, Екатерина Хохлова, Наталья Волошина, Владимир Лукьянчиков, Олег Борисенко, Эдуард Горбенко, Сергей Рябцев, Герман Кугачев, Анастасия Козина, Анна Флегонтова, Эльмира Абдурахманова, Елена Митрековских, Елена Дьякова, Ольга Смирнова (II), Любовь Стручинская, Ольга Стручинская, Ирина Чупукова, Елена Хромылева, Евгения Бубновская, Мирослава Артемьева, Олеся Немец, Рикки Салонен, Анники Дитятьева
Описание: Группа студентов отправляется в экспедицию по глухим северным деревням. В одной из них главная героиня - девушка, увлеченная мистикой и романтикой загробного мира - находит древний могильник, а в нем - магический щит. Дотронувшись до щита, она пробуждает гнев духов прошлого и приобретает сверхчеловеческие способности. Теперь студентам придется вступить в противостояние с силами зла...
Доп. информация:

Формат видео: AVI
Качество видео: HDRip
Видео кодек: XviD
Аудио кодек: MP3
Видео: XviD, 688x384, 23.976fps, 850kbps
Аудио: MPEG Layer 3, 48000Hz, 128kbps, stereo
MediaInfo
General
Complete name : Temnyi.Mir.1.2010.O.HDRip.700.avi
Format : AVI
Format/Info : Audio Video Interleave
File size : 744 MiB
Duration : 1h 45mn
Overall bit rate : 987 Kbps
Writing application : VirtualDubMod 1.5.10.2 (build 2540/release)
Writing library : VirtualDubMod build 2540/release
Video
ID : 0
Format : MPEG-4 Visual
Format profile : Advanced Simple@L5
Format settings, BVOP : 1
Format settings, QPel : No
Format settings, GMC : No warppoints
Format settings, Matrix : Default (MPEG)
Codec ID : XVID
Codec ID/Hint : XviD
Duration : 1h 45mn
Bit rate : 850 Kbps
Width : 688 pixels
Height : 384 pixels
Display aspect ratio : 16:9
Frame rate : 23.976 fps
Color space : YUV
Chroma subsampling : 4:2:0
Bit depth : 8 bits
Scan type : Progressive
Compression mode : Lossy
Bits/(Pixel*Frame) : 0.134
Stream size : 641 MiB (86%)
Writing library : XviD 1.2.1 (UTC 2008-12-04)
Audio
ID : 1
Format : MPEG Audio
Format version : Version 1
Format profile : Layer 3
Codec ID : 55
Codec ID/Hint : MP3
Duration : 1h 45mn
Bit rate mode : Constant
Bit rate : 128 Kbps
Channel(s) : 2 channels
Sampling rate : 48.0 KHz
Compression mode : Lossy
Stream size : 96.5 MiB (13%)
Alignment : Aligned on interleaves
Interleave, duration : 42 ms (1.00 video frame)
Interleave, preload duration : 504 ms
Writing library : LAME3.98r
Encoding settings : -m s -V 4 -q 2 -lowpass 17 -b 128
Скриншоты
Скачать

Скачать торрент!

Как скачивать? · Что такое торрент? · Рейтинг и ограничения

Сайт не распространяет и не хранит электронные версии произведений, а лишь предоставляет доступ к создаваемому пользователями каталогу ссылок на торрент-файлы, которые содержат только списки хеш-сумм

[Профиль] [ЛС]
Показать сообщения:    
Ответить на тему

Текущее время: Сегодня 12:11

Часовой пояс: GMT + 4



Вы не можете начинать темы
Вы не можете отвечать на сообщения
Вы не можете редактировать свои сообщения
Вы не можете удалять свои сообщения
Вы не можете голосовать в опросах
Вы не можете прикреплять файлы к сообщениям
Вы не можете скачивать файлы