Очень хорошие девочки / Very Good Girls (Наоми Фонер / Naomi Foner) [2013, США, драма, BDRip 1080p] MVO (НТВ+) + Sub Eng + Original Eng

Ответить на тему
 
Автор Сообщение

user ®

Стаж: 7 лет 7 месяцев

Сообщений: 20008

Пост Пост: #1 от 27-Янв-2015 17:03

[Цитировать]

Очень хорошие девочки / Very Good Girls
Страна: США
Студия: Groundswell Productions, Herrick Productions
Жанр: драма
Год выпуска: 2013
Продолжительность: 01:30:50
Перевод: Профессиональный (многоголосый закадровый) НТВ+
Cубтитры: английские
Оригинальная аудиодорожка: английский
Режиссер: Наоми Фонер / Naomi Foner
В ролях: Дакота Фаннинг, Элизабет Олсен, Бойд Холбрук, Эллен Баркин, Ричард Дрейфусс, Деми Мур, Стерлинг Джонс, Ленни Арройо-Платт, Кирнан Шипка, Клер Фоли, Рослин Карри, Кларк Грегг, Оуэн Кэмпбелл, Питер Сарсгаард, Джеймс Дженнер, Финис Эйвери, Кейтлинн Бэйли, Эри Бэркэн, Маки Берт, Кристофер Джеймс Каллен, Алекс Галпер, Розмари Ховард, Ник Нэппи, Кирилл Никифоров
Описание: Две нью-йоркские девушки договариваются потерять свою девственность в первое лето после окончания школы. Но получается так, что они обе влюбляются в одного уличного артиста…

Тип релиза: BDRip 1080p
Контейнер: MKV
Видео: MPEG-4 AVC, 11.2 Mбит/с, 1920x800, 23,976 fps
Аудио: Rus, AC3, 448 kb/s (6 ch), 48 kHz
Аудио 2: Eng, DTS, 1510 kb/s (6 ch), 48 kHz
Формат субтитров: softsub (SRT)
MediaInfo
Format : Matroska
Format version : Version 4 / Version 2
File size : 8.52 GiB
Duration : 1h 30mn
Overall bit rate : 13.4 Mbps
Movie name : Tonik
Encoded date : UTC 2015-01-26 05:02:34
Writing application : mkvmerge v7.1.0 ('Good Love') 64bit built on Jul 27 2014 13:06:55
Writing library : libebml v1.3.0 + libmatroska v1.4.1
_STATISTICS_WRITING_APP : mkvmerge v7.1.0 ('Good Love') 64bit built on Jul 27 2014 13:06:55
_STATISTICS_WRITING_DATE_UTC : 2015-01-26 05:02:34
_STATISTICS_TAGS : BPS DURATION NUMBER_OF_FRAMES NUMBER_OF_BYTES
DURATION : 01:29:39.082000000
NUMBER_OF_FRAMES : 1134
NUMBER_OF_BYTES : 28407
Video
ID : 1
Format : AVC
Format/Info : Advanced Video Codec
Format profile : High@L4.1
Format settings, CABAC : Yes
Format settings, ReFrames : 5 frames
Codec ID : V_MPEG4/ISO/AVC
Duration : 1h 30mn
Bit rate : 11.2 Mbps
Width : 1 920 pixels
Height : 800 pixels
Display aspect ratio : 2.40:1
Frame rate mode : Constant
Frame rate : 23.976 fps
Color space : YUV
Chroma subsampling : 4:2:0
Bit depth : 8 bits
Scan type : Progressive
Bits/(Pixel*Frame) : 0.304
Stream size : 7.11 GiB (83%)
Title : Tonik
Writing library : x264 core 144 r2525 40bb568
Encoding settings : cabac=1 / ref=5 / deblock=1:-3:-3 / analyse=0x3:0x133 / me=umh / subme=11 / psy=1 / psy_rd=1.00:0.00 / mixed_ref=1 / me_range=48 / chroma_me=1 / trellis=2 / 8x8dct=1 / cqm=0 / deadzone=21,11 / fast_pskip=0 / chroma_qp_offset=-2 / threads=12 / lookahead_threads=3 / sliced_threads=0 / nr=0 / decimate=1 / interlaced=0 / bluray_compat=0 / constrained_intra=0 / bframes=10 / b_pyramid=2 / b_adapt=2 / b_bias=0 / direct=3 / weightb=1 / open_gop=0 / weightp=2 / keyint=250 / keyint_min=23 / scenecut=40 / intra_refresh=0 / rc_lookahead=60 / rc=crf / mbtree=1 / crf=14.0 / qcomp=0.60 / qpmin=0 / qpmax=69 / qpstep=4 / ip_ratio=1.40 / aq=1:1.00
Language : English
Default : Yes
Forced : No
DURATION : 01:30:50.868000000
NUMBER_OF_FRAMES : 130690
NUMBER_OF_BYTES : 7815989075
_STATISTICS_WRITING_APP : mkvmerge v7.1.0 ('Good Love') 64bit built on Jul 27 2014 13:06:55
_STATISTICS_WRITING_DATE_UTC : 2015-01-26 05:02:34
_STATISTICS_TAGS : BPS DURATION NUMBER_OF_FRAMES NUMBER_OF_BYTES
Audio #1
ID : 2
Format : AC-3
Format/Info : Audio Coding 3
Mode extension : CM (complete main)
Format settings, Endianness : Big
Codec ID : A_AC3
Duration : 1h 30mn
Bit rate mode : Constant
Bit rate : 448 Kbps
Channel(s) : 6 channels
Channel positions : Front: L C R, Side: L R, LFE
Sampling rate : 48.0 KHz
Bit depth : 16 bits
Compression mode : Lossy
Stream size : 291 MiB (3%)
Language : Russian
Default : Yes
Forced : No
Audio #2
ID : 3
Format : DTS
Format/Info : Digital Theater Systems
Mode : 16
Format settings, Endianness : Big
Codec ID : A_DTS
Duration : 1h 30mn
Bit rate mode : Constant
Bit rate : 1 509 Kbps
Channel(s) : 6 channels
Channel positions : Front: L C R, Side: L R, LFE
Sampling rate : 48.0 KHz
Bit depth : 16 bits
Compression mode : Lossy
Stream size : 981 MiB (11%)
Language : English
Default : No
Forced : No
Text
ID : 4
Format : UTF-8
Codec ID : S_TEXT/UTF8
Codec ID/Info : UTF-8 Plain Text
Language : English
Default : No
Forced : No
Menu
00:00:00.000 : en:00:00:00.000
00:06:09.202 : en:00:06:09.202
00:12:20.365 : en:00:12:20.365
00:20:53.836 : en:00:20:53.836
00:31:50.575 : en:00:31:50.575
00:41:04.253 : en:00:41:04.253
00:51:55.696 : en:00:51:55.696
01:02:14.648 : en:01:02:14.648
01:08:45.705 : en:01:08:45.705
01:14:18.371 : en:01:14:18.371
01:26:29.684 : en:01:26:29.684
Скриншоты
Скачать

Скачать торрент!

Как скачивать? · Что такое торрент? · Рейтинг и ограничения

Сайт не распространяет и не хранит электронные версии произведений, а лишь предоставляет доступ к создаваемому пользователями каталогу ссылок на торрент-файлы, которые содержат только списки хеш-сумм

[Профиль] [ЛС]
Показать сообщения:    
Ответить на тему

Текущее время: Сегодня 12:32

Часовой пояс: GMT + 4



Вы не можете начинать темы
Вы не можете отвечать на сообщения
Вы не можете редактировать свои сообщения
Вы не можете удалять свои сообщения
Вы не можете голосовать в опросах
Вы не можете прикреплять файлы к сообщениям
Вы не можете скачивать файлы