Пятеро друзей 2 / Fünf Freunde 2 (Майк Марзук / Mike Marzuk) [2013, Германия, семейный, приключения, HDTV 1080i] MVO

Ответить на тему
 
Автор Сообщение

user ®

Стаж: 7 лет 7 месяцев

Сообщений: 20008

Пост Пост: #1 от 27-Янв-2015 17:03

[Цитировать]

Пятеро друзей 2 / Fünf Freunde 2- Страна: Германия
Студия: Sam Film, Constantin Film
Жанр: семейный, приключения
Год выпуска: 2013
Продолжительность: 01:28:11
Перевод: Профессиональный (многоголосый закадровый)
Cубтитры: нет
Оригинальная аудиодорожка: нет-Режиссер: Майк Марзук / Mike Marzuk
В ролях: Квирин Ёттль, Юстус Шлингензипен, Кристо Феркич, Валерия Айзенбарт, Нееле-Мари Никель, Петер Ломайер, Оливер Кориттке, Штефан Конарске, Хейо фон Штеттен, Анатоль Таубман, Себастьян Герольд, Роберт Шенкер, Петр Дворжак-Описание: Снова лето, каникулы, и пятерка друзей - Джордж, Джулиан, Дик, Анна и их верный пес Тимми - опять находят приключение на свои головы. Во время похода на легендарное Кошачье болото они узнают старую легенду о таинственном и благородном воине по кличке Черный Кот, который еще в XIX веке спас от воров самый большой в мире изумруд "Зеленый глаз" и спрятал его где-то в этих краях. Там же ребята знакомятся со своим ровесником - мальчиком по имени Харди. Внезапно Дика, спутав его с Харди, похищают два бандита. Друзья, конечно, бросаются на выручку Дику, но им противостоит целая преступная группировка, скрывающаяся под личиной бродячего цирка...-Семпл: http://sendfile.su/1078550-Тип релиза: HDTV 1080i
Контейнер: TS
Видео: 1920x1080i (16:9), 25.000 fps, AVC, ~8031 Kbps, 0.155 bits/pixel
Аудио: Русский, 48.0 KHz, AC3, 6 ch, 448 Kbps
MediaInfo
General
ID : 1 (0x1)
Complete name : Funf Freunde 2 HDTV 1080i HD-Kino2 NTV+.ts
Format : MPEG-TS
File size : 5.50 GiB
Duration : 1h 28mn
Overall bit rate mode : Variable
Overall bit rate : 8 924 Kbps
Maximum Overall bit rate : 35.5 Mbps
Video
ID : 4113 (0x1011)
Menu ID : 1 (0x1)
Format : AVC
Format/Info : Advanced Video Codec
Format profile : High@L4.0
Format settings, CABAC : Yes
Format settings, ReFrames : 4 frames
Codec ID : 27
Duration : 1h 28mn
Bit rate mode : Variable
Bit rate : 8 031 Kbps
Maximum bit rate : 40.0 Mbps
Width : 1 920 pixels
Height : 1 080 pixels
Display aspect ratio : 16:9
Frame rate : 25.000 fps
Standard : Component
Color space : YUV
Chroma subsampling : 4:2:0
Bit depth : 8 bits
Scan type : Interlaced
Scan order : Top Field First
Bits/(Pixel*Frame) : 0.155
Stream size : 4.95 GiB (90%)
Color primaries : BT.709
Transfer characteristics : BT.709
Matrix coefficients : BT.709
Color range : Limited
Audio
ID : 4352 (0x1100)
Menu ID : 1 (0x1)
Format : AC-3
Format/Info : Audio Coding 3
Mode extension : CM (complete main)
Format settings, Endianness : Big
Codec ID : 129
Duration : 1h 28mn
Bit rate mode : Constant
Bit rate : 448 Kbps
Channel(s) : 6 channels
Channel positions : Front: L C R, Side: L R, LFE
Sampling rate : 48.0 KHz
Bit depth : 16 bits
Compression mode : Lossy
Stream size : 283 MiB (5%)
Language : Russian
Скриншоты
Скачать

Скачать торрент!

Как скачивать? · Что такое торрент? · Рейтинг и ограничения

Сайт не распространяет и не хранит электронные версии произведений, а лишь предоставляет доступ к создаваемому пользователями каталогу ссылок на торрент-файлы, которые содержат только списки хеш-сумм

[Профиль] [ЛС]
Показать сообщения:    
Ответить на тему

Текущее время: Сегодня 14:29

Часовой пояс: GMT + 4



Вы не можете начинать темы
Вы не можете отвечать на сообщения
Вы не можете редактировать свои сообщения
Вы не можете удалять свои сообщения
Вы не можете голосовать в опросах
Вы не можете прикреплять файлы к сообщениям
Вы не можете скачивать файлы