Мечта (Михаил Ромм) [1941, Драма, DVDRip]

Ответить на тему
 
Автор Сообщение

user ®

Стаж: 7 лет 7 месяцев

Сообщений: 20008

Пост Пост: #1 от 27-Янв-2015 17:03

[Цитировать]

Мечта
Жанр: Драма
Год выпуска: 1941
Продолжительность: 1:39:25
Режиссёр: Михаил Ромм
В ролях: Елена Кузьмина, Владимир Соловьев, Виктор Щеглов, Фаина Раневская, Аркадий Кисляков, Ада Войцик, Михаил Астангов, Михаил Болдуман, Ростислав Плятт, Николай Орлов

Описание: В кое-как выбившейся «в люди» — по крайней мере, так ей кажется — Розе Скороход парадоксально смешивались сострадание и жесточайшая беспощадность к тем, кто ниже ее по социальному статусу, всепоглощающая скупость и такая же безмерная любовь к сыну-неудачнику, ради которого она живет, трудится, совершает низости, понимая в глубине души всю бесполезность этих усилий. Горькую мелодию подхватывали и другие герои.
«Вечная невеста» пани Ванда, переживающая одно за другим крушение в любой попытке как-то устроить свою жизнь, найти того, кто даст ей хотя бы как-то устроить свою жизнь, найти того, кто даст ей возможность более менее нормального существования. Причем она изначально знает, что обречена и единственное, что принесет ей покой — добровольный уход из жизни. Такой же нелепый, избитый жизнью и ее мнимый жених — пан Коморовский, исполненный жалкой спеси, за которой пытается скрыть все ту же нищету и убожество своих дней.

Доп. информация: Релиз: , pmv
Сэмпл: http://multi-up.com/1029481
Качество видео: DVDRip
Формат видео: AVI
Видео: 720x544 (1.32:1), 25 fps, XviD build 73 ~1934 kbps avg, 0.20 bit/pixel
Аудио: 48 kHz, MPEG Layer 3, 2 ch, ~128.00 kbps avg
MediaInfo
Format : AVI
Format/Info : Audio Video Interleave
File size : 1.44 GiB
Duration : 1h 39mn
Overall bit rate : 2 072 Kbps
Writing library : VirtualDub build 35576/release
Video
ID : 0
Format : MPEG-4 Visual
Format profile : Advanced Simple@L5
Format settings, BVOP : Yes
Format settings, QPel : No
Format settings, GMC : No warppoints
Format settings, Matrix : Default (H.263)
Codec ID : XVID
Codec ID/Hint : XviD
Duration : 1h 39mn
Bit rate : 1 934 Kbps
Width : 720 pixels
Height : 544 pixels
Display aspect ratio : 4:3
Frame rate : 25.000 fps
Color space : YUV
Chroma subsampling : 4:2:0
Bit depth : 8 bits
Scan type : Progressive
Bits/(Pixel*Frame) : 0.198
Stream size : 1.34 GiB (93%)
Writing library : XviD 73
Audio
ID : 1
Format : MPEG Audio
Format version : Version 1
Format profile : Layer 3
Mode : Joint stereo
Codec ID : 55
Codec ID/Hint : MP3
Duration : 1h 39mn
Bit rate mode : Constant
Bit rate : 128 Kbps
Channel(s) : 2 channels
Sampling rate : 48.0 KHz
Stream size : 91.0 MiB (6%)
Alignment : Split accross interleaves
Interleave, duration : 40 ms (1.00 video frame)
Interleave, preload duration : 500 ms
Сравнение:
скрытый текст
с [url=http://***/forum/viewtopic.php?t=1347942]http://***/forum/viewtopic.php?t=1347942[/url]
http://screenshotcomparison.com/comparison/111817
Скриншот c названием фильма Скриншоты
Скачать

Скачать торрент!

Как скачивать? · Что такое торрент? · Рейтинг и ограничения

Сайт не распространяет и не хранит электронные версии произведений, а лишь предоставляет доступ к создаваемому пользователями каталогу ссылок на торрент-файлы, которые содержат только списки хеш-сумм

[Профиль] [ЛС]
Показать сообщения:    
Ответить на тему

Текущее время: Сегодня 16:35

Часовой пояс: GMT + 4



Вы не можете начинать темы
Вы не можете отвечать на сообщения
Вы не можете редактировать свои сообщения
Вы не можете удалять свои сообщения
Вы не можете голосовать в опросах
Вы не можете прикреплять файлы к сообщениям
Вы не можете скачивать файлы