Поклонница / Фанатка / Der Fan / Trance / Blood Groupie (Экхарт Шмидт / Eckhart Schmidt) [1982, Германия (ФРГ), триллер, драма, BDRemux 1080p] VO (den904) + original (ger) + sub (rus, ger)

Ответить на тему
 
Автор Сообщение

user ®

Стаж: 7 лет 7 месяцев

Сообщений: 20008

Пост Пост: #1 от 27-Янв-2015 02:03

[Цитировать]

Поклонница/ Der Fan
Год выпуска: 1982
Страна: ФРГ
Жанр: триллер, драма
Продолжительность: 01:32:45
Перевод: Одноголосый (закадровый)(Den904)
Субтитры: русские, немецкие
Оригинальная аудиодорожка: немецкий
Режиссер: Экхарт Шмидт / Eckhart Schmidt
В ролях: Désirée Nosbusch , Бодо Стайгер, Simone Brahmann, Йонас Вишер, Helga Tölle, Klaus Münster, Ian Moorse, Wilfried Blasberg, Sabine Kueckelmann
Описание: 17-летняя Симоне влюбляется в рок-певца. Пишет ему письма, и понятно без ответа. Из-за этого злится, хамит учителям и родителям, даже нападает на почтальона, полагая, что тот скрывает от нее письма. В конце концов набирается смелости и едет к своему любимому в Мюнхен. Там таких фанаток длиннющая очередь, но наша героиня девушка очень даже красивая и рок-звезда благосклонно останавливает на ней взгляд… Далее, понятно, следует трах и "прощай, детка, прощай". Вот только наша детка не из тех…

Качество: BDRemux 1080p
Формат: MKV
Видео кодек: H.264
Аудио кодек: АС3
Видео: 1920 x 1080 / MPEG-4 AVC Video / 24000 kbps / 1080p / 23.976 fps / 16:9 / High Profile 4.1
Аудио1: Русский AC3 2.0 192 kbps 48 kHz
Аудио2: Deutsch, AC3 2.0 384kbps 48 kHz
Субтитры: Soft Sub (SRT)
Главы
MediaInfo
Общее
Уникальный идентификатор : 215543173619209270039524584965514009723 (0xA2281AF0E3291E7C93DBA88721F51C7B)
Полное имя : D:\Der.Fan.1982.BDRemux.1080p.Rus.Ger.mkv
Формат : Matroska
Версия формата : Version 4 / Version 2
Размер файла : 16,0 Гбайт
Продолжительность : 1 ч. 33 м.
Режим общего битрейта : Переменный
Общий поток : 24,6 Мбит/сек
Название фильма : Der Fan
Дата кодирования : UTC 2015-01-25 09:16:57
Программа кодирования : mkvmerge v7.3.0 ('Nouages') 32bit built on Oct 22 2014 18:44:01
Библиотека кодирования : libebml v1.3.0 + libmatroska v1.4.1
_STATISTICS_WRITING_APP : mkvmerge v7.3.0 ('Nouages') 32bit built on Oct 22 2014 18:44:01
_STATISTICS_WRITING_DATE_UTC : 2015-01-25 09:16:57
_STATISTICS_TAGS : BPS DURATION NUMBER_OF_FRAMES NUMBER_OF_BYTES
DURATION : 01:29:37.579000000
NUMBER_OF_FRAMES : 336
NUMBER_OF_BYTES : 15702
Видео
Идентификатор : 1
Формат : AVC
Формат/Информация : Advanced Video Codec
Профиль формата : High@L4.1
Параметр CABAC формата : Да
Параметр ReFrames формата : 3 кадра
Идентификатор кодека : V_MPEG4/ISO/AVC
Продолжительность : 1 ч. 33 м.
Вид битрейта : Переменный
Битрейт : 23,5 Мбит/сек
Максимальный битрейт : 39,0 Мбит/сек
Ширина : 1920 пикселей
Высота : 1080 пикселей
Соотношение сторон : 16:9
Режим частоты кадров : Постоянный
Частота кадров : 23,976 кадра/сек
Цветовое пространство : YUV
Субдискретизация насыщенности : 4:2:0
Битовая глубина : 8 бит
Тип развёртки : Прогрессивная
Бит/(Пиксели*Кадры) : 0.473
Размер потока : 15,3 Гбайт (96%)
Заголовок : The.Fan.1982.MULTi.COMPLETE.BLURAY-FULLBRUTALiTY
Default : Нет
Forced : Нет
Основные цвета : BT.709
Характеристики трансфера : BT.709
Коэффициенты матрицы : BT.709
Аудио #1
Идентификатор : 2
Формат : AC-3
Формат/Информация : Audio Coding 3
Расширение режима : CM (complete main)
Параметр Endianness формата : Big
Идентификатор кодека : A_AC3
Продолжительность : 1 ч. 33 м.
Вид битрейта : Постоянный
Битрейт : 192 Кбит/сек
Каналы : 2 канала
Расположение каналов : Front: L R
Частота : 48,0 КГц
Битовая глубина : 16 бит
Метод сжатия : С потерями
Размер потока : 128 Мбайт (1%)
Заголовок : Den904 AC3 2.0 192 kbps
Язык : Russian
Default : Нет
Forced : Нет
Аудио #2
Идентификатор : 3
Формат : AC-3
Формат/Информация : Audio Coding 3
Расширение режима : CM (complete main)
Параметр Endianness формата : Big
Идентификатор кодека : A_AC3
Продолжительность : 1 ч. 33 м.
Вид битрейта : Постоянный
Битрейт : 384 Кбит/сек
Каналы : 2 канала
Расположение каналов : Front: L R
Частота : 48,0 КГц
Битовая глубина : 16 бит
Метод сжатия : С потерями
Размер потока : 256 Мбайт (2%)
Заголовок : Original AC3 2.0 384 kbps
Язык : German
Default : Нет
Forced : Нет
Текст #1
Идентификатор : 4
Формат : UTF-8
Идентификатор кодека : S_TEXT/UTF8
Идентификатор кодека/Информация : UTF-8 Plain Text
Язык : Russian
Default : Нет
Forced : Нет
Текст #2
Идентификатор : 5
Формат : UTF-8
Идентификатор кодека : S_TEXT/UTF8
Идентификатор кодека/Информация : UTF-8 Plain Text
Язык : German
Default : Нет
Forced : Нет
Меню
00:00:00.000 : en:00:00:00.000
00:14:33.748 : en:00:14:33.748
00:23:24.653 : en:00:23:24.653
00:33:18.038 : en:00:33:18.038
00:43:40.535 : en:00:43:40.535
00:54:30.184 : en:00:54:30.184
01:07:19.285 : en:01:07:19.285
01:25:41.595 : en:01:25:41.595
Семпл Скриншоты
Скачать

Скачать торрент!

Как скачивать? · Что такое торрент? · Рейтинг и ограничения

Сайт не распространяет и не хранит электронные версии произведений, а лишь предоставляет доступ к создаваемому пользователями каталогу ссылок на торрент-файлы, которые содержат только списки хеш-сумм

[Профиль] [ЛС]

unidisco

Стаж: 11 месяцев 20 дней

Сообщений: 1

Пост Пост: #2 от 19-Дек-2015 05:25 (спустя 10 месяцев 23 дня)

[Цитировать]

Thanks!
[Профиль] [ЛС]
Показать сообщения:    
Ответить на тему

Текущее время: Сегодня 03:58

Часовой пояс: GMT + 4



Вы не можете начинать темы
Вы не можете отвечать на сообщения
Вы не можете редактировать свои сообщения
Вы не можете удалять свои сообщения
Вы не можете голосовать в опросах
Вы не можете прикреплять файлы к сообщениям
Вы не можете скачивать файлы