Метеор-убийца / The Killer Meteors / Feng yu shuang liu xing (Вэй Ло / Wei Lo) [1976 г., Гонконг, Тайвань, боевик, триллер, BDRip] MVO (СТС) + MVO (ТВ-6) + Original (Chi) + Subs (Rus, Eng)

Ответить на тему
 
Автор Сообщение

user ®

Стаж: 13 лет

Сообщений: 15071

Пост Пост: #1 от 26-Янв-2015 19:51

[Цитировать]

--Метеор-убийца / Feng yu shuang liu xing-- Страна: Гонконг, Тайвань
Жанр: боевик, триллер
Год выхода: 1976
Продолжительность: 01:44:36
Перевод 1: профессиональный (многоголосый, закадровый) (СТС)
Перевод 2: профессиональный (многоголосый, закадровый) (ТВ-6)
Субтитры: русские (Gellard), английские
Оригинальная аудиодорожка: китайская (мандарин)
Режиссер: Вэй Ло / Wei Lo
В ролях: Юй Ван, Джеки Чан, Лиу-ли Лан, Линг Ланг Ю, Хуи Лу Чен, Сан Лин Чен, Куо Чунг Чинг, Хань Хсие, Ан Чанг Ху, Ву Вэй
О фильме: Странствующий воин по имени Метеор оказывается втянутым в темную историю с супружеской неверностью, ограблением, убийством и отравлениями.
Таинственный богач Ва нанимает Метеора, чтобы убить собственную жену — по словам Ва, та заводит романы направо и налево и даже пыталась отравить своего мужа, чтобы заграбастать себе все его состояние. Метеор не особенно верит в слова заказчика и вообще не хочет влезать в чужие семейные дрязги, но ему просто не оставляют выбора…
Дополнительно: Синхронизация аудиодорожек и субтитров, а также перевод русских субтитров - Gellard.

Релиз от -
Автор: Gellard
Сэмпл: скачать
Качество: BDRip (источник: maksnew / Blu-Ray Disc / 1080p)
Формат: AVI
Видео: 720x304 (2.37:1), 23.976 fps, XviD build 65 ~2210 kbps avg, 0.42 bit/pixel
Аудио #1: (MVO.STS) 48 kHz, AC3 Dolby Digital, 2/0 (L,R) ch, 192.00 kbps avg
Аудио #2: (MVO.TV6) 48 kHz, AC3 Dolby Digital, 2/0 (L,R) ch, 192.00 kbps avg
Аудио #3: (CHI.MANDARIN) 48 kHz, AC3 Dolby Digital, 3/2 (L,C,R,l,r) + LFE ch, 384.00 kbps avg
Формат субтитров: softsub (SRT)-
-
Скриншоты MediaInfo
General
Complete name                            : Meteor.ubijca.1976.TRIPLE.BDRip.XviD.AC3.-HQCLUB.avi
Format                                   : AVI
Format/Info                              : Audio Video Interleave
Format profile                           : OpenDML
File size                                : 2.18 GiB
Duration                                 : 1h 44mn
Overall bit rate                         : 2 986 Kbps
Movie name                               : Метеор-убийца / The Killer Meteors / Feng yu shuang liu xing (1976) BDRip
Director                                 : Gellard
Genre                                    : боевик, триллер
Writing application                      : VirtualDubMod 1.5.10.2 (build 2542/release)
Copyright                                : HQCLUB
Comment                                  : 25.01.2015
Video
ID                                       : 0
Format                                   : MPEG-4 Visual
Format profile                           : Advanced Simple@L5
Format settings, BVOP                    : 1
Format settings, QPel                    : No
Format settings, GMC                     : No warppoints
Format settings, Matrix                  : Custom
Codec ID                                 : XVID
Codec ID/Hint                            : XviD
Duration                                 : 1h 44mn
Bit rate                                 : 2 194 Kbps
Width                                    : 720 pixels
Height                                   : 304 pixels
Display aspect ratio                     : 2.35:1
Frame rate                               : 23.976 fps
Color space                              : YUV
Chroma subsampling                       : 4:2:0
Bit depth                                : 8 bits
Scan type                                : Progressive
Compression mode                         : Lossy
Bits/(Pixel*Frame)                       : 0.418
Stream size                              : 1.60 GiB (73%)
Writing library                          : XviD 65
Audio #1
ID                                       : 1
Format                                   : AC-3
Format/Info                              : Audio Coding 3
Mode extension                           : CM (complete main)
Format settings, Endianness              : Big
Codec ID                                 : 2000
Duration                                 : 1h 44mn
Bit rate mode                            : Constant
Bit rate                                 : 192 Kbps
Channel count                            : 2 channels
Channel positions                        : Front: L R
Sampling rate                            : 48.0 KHz
Bit depth                                : 16 bits
Compression mode                         : Lossy
Stream size                              : 144 MiB (6%)
Alignment                                : Split accross interleaves
Interleave, duration                     : 42 ms (1.00 video frame)
Interleave, preload duration             : 500 ms
Audio #2
ID                                       : 2
Format                                   : AC-3
Format/Info                              : Audio Coding 3
Mode extension                           : CM (complete main)
Format settings, Endianness              : Big
Codec ID                                 : 2000
Duration                                 : 1h 44mn
Bit rate mode                            : Constant
Bit rate                                 : 192 Kbps
Channel count                            : 2 channels
Channel positions                        : Front: L R
Sampling rate                            : 48.0 KHz
Bit depth                                : 16 bits
Compression mode                         : Lossy
Stream size                              : 144 MiB (6%)
Alignment                                : Split accross interleaves
Interleave, duration                     : 42 ms (1.00 video frame)
Interleave, preload duration             : 500 ms
Audio #3
ID                                       : 3
Format                                   : AC-3
Format/Info                              : Audio Coding 3
Mode extension                           : CM (complete main)
Format settings, Endianness              : Big
Codec ID                                 : 2000
Duration                                 : 1h 44mn
Bit rate mode                            : Constant
Bit rate                                 : 384 Kbps
Channel count                            : 6 channels
Channel positions                        : Front: L C R, Side: L R, LFE
Sampling rate                            : 48.0 KHz
Bit depth                                : 16 bits
Compression mode                         : Lossy
Stream size                              : 287 MiB (13%)
Alignment                                : Split accross interleaves
Interleave, duration                     : 42 ms (1.00 video frame)
Interleave, preload duration             : 500 ms
Скачать

Скачать торрент! Метеор-убийца / The Killer Meteors / Feng yu shuang liu xing (Вэй Ло / Wei Lo) [1976 г., Гонконг, Тайвань, боевик, триллер, BDRip] MVO (СТС) + MVO (ТВ-6) + Original (Chi) + Subs (Rus, Eng)

Как скачивать? · Что такое торрент? · Рейтинг и ограничения

Сайт не распространяет и не хранит электронные версии произведений, а лишь предоставляет доступ к создаваемому пользователями каталогу ссылок на торрент-файлы, которые содержат только списки хеш-сумм

[Профиль] [ЛС]
Показать сообщения:    
Ответить на тему

Текущее время: Сегодня 11:42

Часовой пояс: GMT + 4



Вы не можете начинать темы
Вы не можете отвечать на сообщения
Вы не можете редактировать свои сообщения
Вы не можете удалять свои сообщения
Вы не можете голосовать в опросах
Вы не можете прикреплять файлы к сообщениям
Вы не можете скачивать файлы