Благодетель / The Rainmaker (Френсис Форд Коппола / Francis Ford Coppola) [1997, США, триллер, драма, BDRip 1080p] Dub (Невафильм) + 2x MVO (R5, ОРТ) + AVO (Живов) + VO (Новый Вавилон) + Sub Rus, Eng + Original Eng

Ответить на тему
 
Автор Сообщение

user ®

Стаж: 7 лет 7 месяцев

Сообщений: 20008

Пост Пост: #1 от 26-Янв-2015 19:51

[Цитировать]

Благодетель / The Rainmaker
Страна: США
Жанр: триллер, драма
Год выпуска: 1997
Продолжительность: 02:15:30
Перевод: Профессиональный (дублированный) Невафильм
Перевод: Профессиональный (многоголосый закадровый) R5
Перевод: Профессиональный (многоголосый закадровый) ОРТ
Перевод: Авторский (одноголосый закадровый) Юрий Живов
Перевод: Одноголосый закадровый Студия "Новый Вавилон"
Cубтитры: Russian, English
Оригинальная аудиодорожка: английский
Режиссер: Френсис Форд Коппола / Francis Ford Coppola
В ролях: Мэтт Дэймон, Дэнни ДеВито, Клэр Дэйнс, Джон Войт, Дэнни Гловер, Мэри Кэй Плэйс, Тереза Райт, Джонни Витуорт, Рой Шайдер, Микки Рурк
Описание: Молодому юристу Руди Бэйлору кажется, что вот - вот настанет Звездный час и он станет знаменитым адвокатом со своей собственной фирмой, роскошной виллой, шикарными машинами и женщинами. Но это только мечта.
И ему приходится заниматься черной, неблагодарной работой на других. Все меняется в один день, когда он наталкивается на многомиллионную аферу в страховом бизнесе, разоблачив которую, он может осуществить все свои заветные мечты... если, конечно, сможет остаться живым.
Доп. информация: За энкод спасибо kimi4ever @ HDBits. За работу над дорогами, спасибо Прагматику
Сэмпл: https://yadi.sk/i/JxxbILW-eDfLM
Тип релиза: BDRip 1080p - CtrlHD
Контейнер: MKV
Видео: AVC 1920x818 (2.35:1) 23.976 fps, 8091 kbps
Аудио: Russian / Dolby Digital Audio / 2.0 / 48 kHz / 192 kbps (Дубляж - Невафильм)
Аудио: Russian / DTS / 5.1 / 48 kHz / 1509 kbps / 16-bit (Многоголосый закадровый - R5)
Аудио: Russian / Dolby Digital Audio / 2.0 / 48 kHz / 192 kbps (Многоголосый закадровый - ОРТ)
Аудио: Russian / DTS / 5.1 / 48 kHz / 1509 kbps / 16-bit (Одноголосый закадровый - Юрий Живов)
Аудио: Russian / Dolby Digital Audio / 2.0 / 48 kHz / 192 kbps (Одноголосый закадровый - Новый Вавилон)
Аудио: English / DTS / 5.1 / 48 kHz / 1509 kbps / 16-bit

The Rainmaker 1997 1080p BluRay DTS x264-CtrlHD
RUNTIME.......: 2h:15m:30sSIZE..........: 9.09 GBFRAMERATE.....: 23.976 fpsBITRATE.......: Variable ~ 8091 KbpsRESOLUTION....: 1920x818AUDIO.........: English DTS 5.1 - 1509 KbpsSUBTITLES.....: -CHAPTERS......: Yes
SOURCE - ENCODEhttp://imgbox.com/g/Ef6vQdfD7p
x264 [info]: frame I:1489 Avg QP:15.25 size:166226x264 [info]: frame P:36995 Avg QP:16.34 size: 70899x264 [info]: frame B:156443 Avg QP:17.40 size: 34210
MediaInfo
General
Unique ID : 206223837749990949648075316267474397390 (0x9B25443535B1B4CAB8D515A1AADEA8CE)
Complete name : D:\The Rainmaker 1997 1080p.mkv
Format : Matroska
Format version : Version 4 / Version 2
File size : 12.5 GiB
Duration : 2h 15mn
Overall bit rate : 13.2 Mbps
Movie name : The Rainmaker
Encoded date : UTC 2015-01-25 08:06:37
Writing application : mkvmerge v7.3.0 ('Nouages') 32bit built on Oct 22 2014 18:44:01
Writing library : libebml v1.3.0 + libmatroska v1.4.1
DURATION : 02:15:30.144000000
NUMBER_OF_FRAMES : 762201
NUMBER_OF_BYTES : 1533548412
_STATISTICS_WRITING_APP : mkvmerge v7.3.0 ('Nouages') 32bit built on Oct 22 2014 18:44:01
_STATISTICS_WRITING_DATE_UTC : 2015-01-25 08:06:37
_STATISTICS_TAGS : BPS DURATION NUMBER_OF_FRAMES NUMBER_OF_BYTES
Video
ID : 1
Format : AVC
Format/Info : Advanced Video Codec
Format profile : High@L4.1
Format settings, CABAC : Yes
Format settings, ReFrames : 5 frames
Codec ID : V_MPEG4/ISO/AVC
Duration : 2h 15mn
Bit rate : 7 833 Kbps
Width : 1 920 pixels
Height : 818 pixels
Display aspect ratio : 2.35:1
Frame rate mode : Constant
Frame rate : 23.976 fps
Color space : YUV
Chroma subsampling : 4:2:0
Bit depth : 8 bits
Scan type : Progressive
Bits/(Pixel*Frame) : 0.208
Stream size : 7.41 GiB (59%)
Writing library : x264 core 142 r2431+42 c69a006 tMod [8-bit@all X86_64]
Encoding settings : cabac=1 / ref=5 / deblock=1:-3:-3 / analyse=0x3:0x133 / me=umh / subme=9 / psy=1 / fade_compensate=0.00 / psy_rd=1.05:0.00 / mixed_ref=1 / me_range=24 / chroma_me=1 / trellis=2 / 8x8dct=1 / cqm=0 / deadzone=21,11 / fast_pskip=0 / chroma_qp_offset=-2 / threads=6 / lookahead_threads=1 / sliced_threads=0 / nr=0 / decimate=0 / interlaced=0 / bluray_compat=0 / constrained_intra=0 / fgo=0 / bframes=8 / b_pyramid=2 / b_adapt=2 / b_bias=0 / direct=3 / weightb=1 / open_gop=0 / weightp=2 / keyint=250 / keyint_min=23 / scenecut=40 / intra_refresh=0 / rc=crf / mbtree=0 / crf=18.0000 / qcomp=0.60 / qpmin=0:0:0 / qpmax=69:69:69 / qpstep=4 / ip_ratio=1.20 / pb_ratio=1.10 / aq=4:0.90 / aq-sensitivity=10.00 / aq-factor=1.00:1.00:1.00 / aq2=0 / aq3=0
Language : English
Default : Yes
Forced : No
DURATION : 02:15:30.081000000
NUMBER_OF_FRAMES : 194927
NUMBER_OF_BYTES : 8222264762
_STATISTICS_WRITING_APP : mkvmerge v7.3.0 ('Nouages') 32bit built on Oct 22 2014 18:44:01
_STATISTICS_WRITING_DATE_UTC : 2015-01-25 08:06:37
_STATISTICS_TAGS : BPS DURATION NUMBER_OF_FRAMES NUMBER_OF_BYTES
Audio #1
ID : 2
Format : AC-3
Format/Info : Audio Coding 3
Mode extension : CM (complete main)
Format settings, Endianness : Big
Codec ID : A_AC3
Duration : 2h 15mn
Bit rate mode : Constant
Bit rate : 192 Kbps
Channel(s) : 2 channels
Channel positions : Front: L R
Sampling rate : 48.0 KHz
Bit depth : 16 bits
Compression mode : Lossy
Stream size : 186 MiB (1%)
Title : Дубляж
Language : Russian
Default : Yes
Forced : No
Audio #2
ID : 3
Format : DTS
Format/Info : Digital Theater Systems
Mode : 16
Format settings, Endianness : Big
Codec ID : A_DTS
Duration : 2h 15mn
Bit rate mode : Constant
Bit rate : 1 509 Kbps
Channel(s) : 6 channels
Channel positions : Front: L C R, Side: L R, LFE
Sampling rate : 48.0 KHz
Bit depth : 24 bits
Compression mode : Lossy
Stream size : 1.43 GiB (11%)
Title : MVO - R5
Language : Russian
Default : No
Forced : No
Audio #3
ID : 4
Format : AC-3
Format/Info : Audio Coding 3
Mode extension : CM (complete main)
Format settings, Endianness : Big
Codec ID : A_AC3
Duration : 2h 15mn
Bit rate mode : Constant
Bit rate : 192 Kbps
Channel(s) : 2 channels
Channel positions : Front: L R
Sampling rate : 48.0 KHz
Bit depth : 16 bits
Compression mode : Lossy
Stream size : 186 MiB (1%)
Title : MVO - ОРТ
Language : Russian
Default : No
Forced : No
Audio #4
ID : 5
Format : DTS
Format/Info : Digital Theater Systems
Mode : 16
Format settings, Endianness : Big
Codec ID : A_DTS
Duration : 2h 15mn
Bit rate mode : Constant
Bit rate : 1 509 Kbps
Channel(s) : 6 channels
Channel positions : Front: L C R, Side: L R, LFE
Sampling rate : 48.0 KHz
Bit depth : 24 bits
Compression mode : Lossy
Stream size : 1.43 GiB (11%)
Title : AVO - Живов
Language : Russian
Default : No
Forced : No
Audio #5
ID : 6
Format : AC-3
Format/Info : Audio Coding 3
Mode extension : CM (complete main)
Format settings, Endianness : Big
Codec ID : A_AC3
Duration : 2h 15mn
Bit rate mode : Constant
Bit rate : 192 Kbps
Channel(s) : 2 channels
Channel positions : Front: L R
Sampling rate : 48.0 KHz
Bit depth : 16 bits
Compression mode : Lossy
Stream size : 186 MiB (1%)
Title : VO - Новый Вавилон
Language : Russian
Default : No
Forced : No
Audio #6
ID : 7
Format : DTS
Format/Info : Digital Theater Systems
Mode : 16
Format settings, Endianness : Big
Codec ID : A_DTS
Duration : 2h 15mn
Bit rate mode : Constant
Bit rate : 1 509 Kbps
Channel(s) : 6 channels
Channel positions : Front: L C R, Side: L R, LFE
Sampling rate : 48.0 KHz
Bit depth : 24 bits
Compression mode : Lossy
Stream size : 1.43 GiB (11%)
Language : English
Default : No
Forced : No
Text #1
ID : 8
Format : UTF-8
Codec ID : S_TEXT/UTF8
Codec ID/Info : UTF-8 Plain Text
Language : Russian
Default : No
Forced : No
Text #2
ID : 9
Format : UTF-8
Codec ID : S_TEXT/UTF8
Codec ID/Info : UTF-8 Plain Text
Language : English
Default : No
Forced : No
Menu
00:00:00.000 : en:00:00:00.000
00:01:57.284 : en:00:01:57.284
00:07:29.407 : en:00:07:29.407
00:12:11.981 : en:00:12:11.981
00:15:35.017 : en:00:15:35.017
00:19:39.011 : en:00:19:39.011
00:28:15.652 : en:00:28:15.652
00:32:11.972 : en:00:32:11.972
00:34:18.890 : en:00:34:18.890
00:36:45.662 : en:00:36:45.662
00:40:47.278 : en:00:40:47.278
00:44:19.740 : en:00:44:19.740
00:50:09.590 : en:00:50:09.590
00:52:50.292 : en:00:52:50.292
00:57:29.404 : en:00:57:29.404
00:59:56.551 : en:00:59:56.551
01:05:18.832 : en:01:05:18.832
01:07:16.532 : en:01:07:16.532
01:09:20.865 : en:01:09:20.865
01:11:34.790 : en:01:11:34.790
01:17:41.574 : en:01:17:41.574
01:18:27.494 : en:01:18:27.494
01:26:38.819 : en:01:26:38.819
01:34:03.805 : en:01:34:03.805
01:36:44.048 : en:01:36:44.048
01:40:06.000 : en:01:40:06.000
01:49:03.954 : en:01:49:03.954
01:51:33.645 : en:01:51:33.645
01:59:12.562 : en:01:59:12.562
02:03:14.387 : en:02:03:14.387
02:05:25.101 : en:02:05:25.101
02:06:46.724 : en:02:06:46.724
02:09:04.987 : en:02:09:04.987
Скриншоты
Скачать

Скачать торрент!

Как скачивать? · Что такое торрент? · Рейтинг и ограничения

Сайт не распространяет и не хранит электронные версии произведений, а лишь предоставляет доступ к создаваемому пользователями каталогу ссылок на торрент-файлы, которые содержат только списки хеш-сумм

[Профиль] [ЛС]
Показать сообщения:    
Ответить на тему

Текущее время: Сегодня 12:34

Часовой пояс: GMT + 4



Вы не можете начинать темы
Вы не можете отвечать на сообщения
Вы не можете редактировать свои сообщения
Вы не можете удалять свои сообщения
Вы не можете голосовать в опросах
Вы не можете прикреплять файлы к сообщениям
Вы не можете скачивать файлы