Темный мир (Антон Мегердичев) [2010, фэнтези, триллер, BDRip]

Ответить на тему
 
Автор Сообщение

user ®

Стаж: 7 лет 7 месяцев

Сообщений: 20008

Пост Пост: #1 от 26-Янв-2015 19:51

[Цитировать]

Темный мир
Жанр: Фэнтези, Триллер
Год выпуска: 2010
Продолжительность: 01:45:24
Режиссёр: Антон Мегердичев
Сценарий: Алексей Сидоров, Александр Дорбинян
Композитор: ХарДрам, Сергей Абрамов, Дмитрий Сухачев
В ролях: Светлана Иванова, Иван Жидков, Елена Панова, Сергей Угрюмов, Владимир Носик, Татьяна Кузнецова, Илья Алексеев, Мария Кожевникова, Денис Юшечкин, Ксения Радченко, Елена Лабутина, Александра Валкер, Захар Хунгуреев, Евгений Атарик, Ольга Гришова, Михаил Солодко, Екатерина Хохлова, Наталья Волошина, Владимир Лукьянчиков, Олег Борисенко, Эдуард Горбенко, Сергей Рябцев, Герман Кугачев, Анастасия Козина, Анна Флегонтова, Эльмира Абдурахманова, Елена Митрековских, Елена Дьякова, Ольга Смирнова (II), Любовь Стручинская, Ольга Стручинская, Ирина Чупукова, Елена Хромылева, Евгения Бубновская, Мирослава Артемьева, Олеся Немец, Рикки Салонен, Анники Дитятьева
Описание: Группа студентов отправляется в экспедицию по глухим северным деревням. В одной из них главная героиня - девушка, увлеченная мистикой и романтикой загробного мира - находит древний могильник, а в нем - магический щит. Дотронувшись до щита, она пробуждает гнев духов прошлого и приобретает сверхчеловеческие способности. Теперь студентам придется вступить в противостояние с силами зла...
Доп. информация: Исходник Blu-Ray.1080p спасибо Kreust

Формат видео: AVI
Качество видео: BDRip (Blu-Ray.1080p)
Видео кодек: XviD
Аудио кодек: AC3
Видео: XviD, 720x400, 23.976fps, 2391kbps
Аудио: AC3 Dolby Digital, 6ch, 48000Hz, 384kbps
MediaInfo
General
Complete name : Temnyi.Mir.1.2010.O.BDRip.2100.avi
Format : AVI
Format/Info : Audio Video Interleave
Format profile : OpenDML
File size : 2.05 GiB
Duration : 1h 45mn
Overall bit rate : 2 787 Kbps
Writing application : VirtualDubModRus 1.5.10.2 (build 2542/release)
Writing library : VirtualDubMod build 2542/release
Video
ID : 0
Format : MPEG-4 Visual
Format profile : Advanced Simple@L5
Format settings, BVOP : 2
Format settings, QPel : No
Format settings, GMC : No warppoints
Format settings, Matrix : Custom
Codec ID : XVID
Codec ID/Hint : XviD
Duration : 1h 45mn
Bit rate : 2 391 Kbps
Width : 720 pixels
Height : 400 pixels
Display aspect ratio : 16:9
Original display aspect ratio : 16:9
Frame rate : 23.976 fps
Color space : YUV
Chroma subsampling : 4:2:0
Bit depth : 8 bits
Scan type : Progressive
Compression mode : Lossy
Bits/(Pixel*Frame) : 0.346
Stream size : 1.76 GiB (86%)
Writing library : XviD 1.2.1 (UTC 2008-12-04)
Audio
ID : 1
Format : AC-3
Format/Info : Audio Coding 3
Mode extension : CM (complete main)
Format settings, Endianness : Big
Codec ID : 2000
Duration : 1h 45mn
Bit rate mode : Constant
Bit rate : 384 Kbps
Channel(s) : 6 channels
Channel positions : Front: L C R, Side: L R, LFE
Sampling rate : 48.0 KHz
Bit depth : 16 bits
Compression mode : Lossy
Stream size : 290 MiB (14%)
Alignment : Split accross interleaves
Interleave, duration : 42 ms (1.00 video frame)
Interleave, preload duration : 500 ms
Скриншоты
Скачать

Скачать торрент!

Как скачивать? · Что такое торрент? · Рейтинг и ограничения

Сайт не распространяет и не хранит электронные версии произведений, а лишь предоставляет доступ к создаваемому пользователями каталогу ссылок на торрент-файлы, которые содержат только списки хеш-сумм

[Профиль] [ЛС]
Показать сообщения:    
Ответить на тему

Текущее время: Сегодня 12:10

Часовой пояс: GMT + 4



Вы не можете начинать темы
Вы не можете отвечать на сообщения
Вы не можете редактировать свои сообщения
Вы не можете удалять свои сообщения
Вы не можете голосовать в опросах
Вы не можете прикреплять файлы к сообщениям
Вы не можете скачивать файлы