Перелётные пташки (Игорь Нурисламов) [2014, Мелодрама, DVB]

Ответить на тему
 
Автор Сообщение

user ®

Стаж: 7 лет 7 месяцев

Сообщений: 20008

Пост Пост: #1 от 26-Янв-2015 05:33

[Цитировать]

Перелётные пташки
Год выпуска: 2014
Жанр: Мелодрама
Производство: Россия, Ланд Синема
Продолжительность: 01:28:50
Субтитры: нет
Режиссёр: Игорь Нурисламов
В ролях: Инга Оболдина, Наталия Варфоломеева, Елизавета Васильева (II), Ян Цапник, Александр Большаков, Артём Яковлев (II), Мария Мясникова, Наталья Щербакова, Татьяна Полонская, Светлана Селезнёва, Анастасия Даниелянц, Азамат Багиров, Артём Анчуков
Описание: Возможно, экстравагантная Марина, привыкшая жить, как хочет и без сожаления «сжигать мосты», так и порхала бы из города в город, с чемоданами и двумя дочерьми, но старшей – уже пятнадцать. Девушка впервые влюбилась и тут же влипла в опасную историю. С ужасом Марина видит в дочери себя и не хочет повторения своей судьбы. Ведь за роскошным фасадом сильной женщины скрывается боль, одиночество, боязнь серьезных отношений. Марина готова пересмотреть свою жизненную позицию. В трудную минуту рядом оказывается мужчина. Он совсем не похож не принца, но Марина решает попробовать построить отношения. Строить оказывается сложнее, чем разрушать, да и поверить в сорок лет сложнее – чем в пятнадцать…

Качество: DVB
Контейнер: MPEG
Видео: MPEG 768х576 @ 720x576 (4:3) 25.00fps ~4350 Kbps (0.42 bit/pixel)
Аудио: MPEG Audio 48000Hz 2 channels 192 Кбит/сек
Сторонней рекламы нет!
MediaInfo
ОбщееПолное имя : H:\Перелётные пташки DVB\Перелетные пташки 01_серия_DVB_by_Wowa63_&_Серый1779.mpgФормат : MPEG-PSРазмер файла : 1,44 ГбайтПродолжительность : 44 м.Общий поток : 4634 Кбит/сек
ВидеоИдентификатор : 224 (0xE0)Формат : MPEG VideoВерсия формата : Version 2Профиль формата : Main@MainПараметр BVOP формата : ДаПараметр матрицы формата : По умолчаниюПродолжительность : 44 м.Вид битрейта : ПеременныйБитрейт : 4350 Кбит/секНоминальный битрейт : 7000 Кбит/секШирина : 720 пикс.Высота : 576 пикс.Соотношение сторон : 4:3Частота кадров : 25,000 кадр/секСтандарт вещания : PALЦветовое пространство : YUVПодвыборка цветности : 4:2:0Битовая глубина : 8 битТип развёртки : ПрогрессивнаяПорядок развёртки : Нижнее поле первоеМетод сжатия : С потерямиБит/(Пиксели*Кадры) : 0.420Размер потока : 1,35 Гбайт (94%)
АудиоИдентификатор : 192 (0xC0)Формат : MPEG AudioВерсия формата : Version 1Профиль формата : Layer 2Продолжительность : 44 м.Вид битрейта : ПостоянныйБитрейт : 192 Кбит/секКаналы : 2 каналаЧастота : 48,0 КГцМетод сжатия : С потерямиРазмер потока : 60,9 Мбайт (4%)
ОбщееПолное имя : H:\Перелётные пташки DVB\Перелетные пташки 02_серия_DVB_by_Wowa63_&_Серый1779.mpgФормат : MPEG-PSРазмер файла : 1,35 ГбайтПродолжительность : 43 м.Общий поток : 4398 Кбит/сек
ВидеоИдентификатор : 224 (0xE0)Формат : MPEG VideoВерсия формата : Version 2Профиль формата : Main@MainПараметр BVOP формата : ДаПараметр матрицы формата : По умолчаниюПродолжительность : 43 м.Вид битрейта : ПеременныйБитрейт : 4119 Кбит/секНоминальный битрейт : 7000 Кбит/секШирина : 720 пикс.Высота : 576 пикс.Соотношение сторон : 4:3Частота кадров : 25,000 кадр/секСтандарт вещания : PALЦветовое пространство : YUVПодвыборка цветности : 4:2:0Битовая глубина : 8 битТип развёртки : ПрогрессивнаяПорядок развёртки : Нижнее поле первоеМетод сжатия : С потерямиБит/(Пиксели*Кадры) : 0.397Размер потока : 1,26 Гбайт (94%)
АудиоИдентификатор : 192 (0xC0)Формат : MPEG AudioВерсия формата : Version 1Профиль формата : Layer 2Продолжительность : 43 м.Вид битрейта : ПостоянныйБитрейт : 192 Кбит/секКаналы : 2 каналаЧастота : 48,0 КГцМетод сжатия : С потерямиРазмер потока : 60,4 Мбайт (4%)
Запись и монтаж:
Оформление:
Раздача группы:
Скриншот c названием фильма Скриншоты
Скачать

Скачать торрент!

Как скачивать? · Что такое торрент? · Рейтинг и ограничения

Сайт не распространяет и не хранит электронные версии произведений, а лишь предоставляет доступ к создаваемому пользователями каталогу ссылок на торрент-файлы, которые содержат только списки хеш-сумм

[Профиль] [ЛС]
Показать сообщения:    
Ответить на тему

Текущее время: Сегодня 22:34

Часовой пояс: GMT + 4



Вы не можете начинать темы
Вы не можете отвечать на сообщения
Вы не можете редактировать свои сообщения
Вы не можете удалять свои сообщения
Вы не можете голосовать в опросах
Вы не можете прикреплять файлы к сообщениям
Вы не можете скачивать файлы