Острова (Игорь Нурисламов) [2015, Мелодрама, DVB]

Ответить на тему
 
Автор Сообщение

user ®

Стаж: 7 лет 7 месяцев

Сообщений: 20008

Пост Пост: #1 от 26-Янв-2015 05:33

[Цитировать]

Острова
Год выпуска: 2015
Жанр: Мелодрама
Производство: Россия, Ланд Синема
Продолжительность: 01:28:50
Субтитры: нет
Режиссёр: Игорь Нурисламов
В ролях: Елена Николаева (II), Юлия Шубарева, Ростислав Бершауэр, Руслан Барабанов, Анна Донченко, Наталья Ткаченко, Игорь Вуколов
Описание: Робкая швея Таня хочет осуществить детскую мечту – побывать на океанских островах. Но денег нет, а обратиться к суровому начальнику за повышением жалования боязно. Как быть - экономить на всём, даже на внимании к лучшей подруге? Или измениться самой?

Качество: DVB
Контейнер: MPEG
Видео: MPEG 768х576 @ 720x576 (4:3) 25.00fps ~4551 Kbps (0.438 bit/pixel)
Аудио: MPEG Audio 48000Hz 2 channels 192 Кбит/сек
Сторонней рекламы нет!
MediaInfo
ОбщееПолное имя : H:\Острова DVB\Острова 01_серия_DVB_Wowa63_&_Серый1779.mpgФормат : MPEG-PSРазмер файла : 1,62 ГбайтПродолжительность : 43 м.Общий поток : 5280 Кбит/сек
ВидеоИдентификатор : 224 (0xE0)Формат : MPEG VideoВерсия формата : Version 2Профиль формата : Main@MainПараметр BVOP формата : ДаПараметр матрицы формата : По умолчаниюПродолжительность : 43 м.Вид битрейта : ПеременныйБитрейт : 4983 Кбит/секНоминальный битрейт : 7000 Кбит/секШирина : 720 пикс.Высота : 576 пикс.Соотношение сторон : 4:3Частота кадров : 25,000 кадр/секСтандарт вещания : PALЦветовое пространство : YUVПодвыборка цветности : 4:2:0Битовая глубина : 8 битТип развёртки : ПрогрессивнаяПорядок развёртки : Нижнее поле первоеМетод сжатия : С потерямиБит/(Пиксели*Кадры) : 0.481Размер потока : 1,53 Гбайт (94%)
АудиоИдентификатор : 192 (0xC0)Формат : MPEG AudioВерсия формата : Version 1Профиль формата : Layer 2Продолжительность : 43 м.Вид битрейта : ПостоянныйБитрейт : 192 Кбит/секКаналы : 2 каналаЧастота : 48,0 КГцМетод сжатия : С потерямиРазмер потока : 60,3 Мбайт (4%)
ОбщееПолное имя : H:\Острова DVB\Острова 02_серия_DVB_Wowa63_&_Серый1779.mpgФормат : MPEG-PSРазмер файла : 1,70 ГбайтПродолжительность : 50 м.Общий поток : 4829 Кбит/сек
ВидеоИдентификатор : 224 (0xE0)Формат : MPEG VideoВерсия формата : Version 2Профиль формата : Main@MainПараметр BVOP формата : ДаПараметр матрицы формата : По умолчаниюПродолжительность : 50 м.Вид битрейта : ПеременныйБитрейт : 4541 Кбит/секНоминальный битрейт : 7000 Кбит/секШирина : 720 пикс.Высота : 576 пикс.Соотношение сторон : 4:3Частота кадров : 25,000 кадр/секСтандарт вещания : PALЦветовое пространство : YUVПодвыборка цветности : 4:2:0Битовая глубина : 8 битТип развёртки : ПрогрессивнаяПорядок развёртки : Нижнее поле первоеМетод сжатия : С потерямиБит/(Пиксели*Кадры) : 0.438Размер потока : 1,60 Гбайт (94%)
АудиоИдентификатор : 192 (0xC0)Формат : MPEG AudioВерсия формата : Version 1Профиль формата : Layer 2Продолжительность : 50 м.Вид битрейта : ПостоянныйБитрейт : 192 Кбит/секКаналы : 2 каналаЧастота : 48,0 КГцМетод сжатия : С потерямиРазмер потока : 69,1 Мбайт (4%)
Запись и монтаж:
Оформление:
Раздача группы:
Скриншот c названием фильма Скриншоты
Скачать

Скачать торрент!

Как скачивать? · Что такое торрент? · Рейтинг и ограничения

Сайт не распространяет и не хранит электронные версии произведений, а лишь предоставляет доступ к создаваемому пользователями каталогу ссылок на торрент-файлы, которые содержат только списки хеш-сумм

[Профиль] [ЛС]
Показать сообщения:    
Ответить на тему

Текущее время: Сегодня 17:48

Часовой пояс: GMT + 4



Вы не можете начинать темы
Вы не можете отвечать на сообщения
Вы не можете редактировать свои сообщения
Вы не можете удалять свои сообщения
Вы не можете голосовать в опросах
Вы не можете прикреплять файлы к сообщениям
Вы не можете скачивать файлы