Гидравлика (Евгений Серов) [2010, Россия, Драма, HDTVRip]

Ответить на тему
 
Автор Сообщение

user ®

Стаж: 7 лет 7 месяцев

Сообщений: 20008

Пост Пост: #1 от 26-Янв-2015 05:33

[Цитировать]

Гидравлика
Год выпуска: 2010
Производство: Россия, ЯрСинема
Жанр: Драма
Продолжительность: ~ 01:39:14
Субтитры: нет
Режиссёр: Евгений Серов
В ролях: Андрей Мерзликин, Юрий Ваксман, Андрей Кузичёв, Ирина Лачина
Описание: История о том, как однажды совершенное «маленькое» предательство, приводит к трагедии. За все в этой жизни приходит расплата, но и накопленная за годы злоба и жажда отомстить тоже чревата. Эта злоба может вернуться к тебе бумерангом, как гидравлический удар в физике. Трое однокурсников вместе учились в техническом институте, но на пятнадцать лет потеряли друг друга из виду. Спустя годы по стечению обстоятельств Сергей Самсонов и вор–щипач Аванс забираются в чужую квартиру. Эта квартира принадлежит бывшему другу – однокурснику Константину Чистову. Чистик когда-то предал Сэма, написав на него донос, из-за чего Сергея отчислили из института за неделю до защиты диплома. У Сэма, который волей судьбы оказывается в квартире Чистика, возникает план мести…

Качество: HDTVRip
Формат: AVI
Видео: 720x400 (1.80:1), 25 fps, XviD build 73 ~1764 kbps avg, 0.25 bit/pixel
Аудио: 48 kHz, AC3 Dolby Digital, 2/0 (L,R) ch, ~192 kbps
Сторонней рекламы нет!
MediaInfo
ОбщееПолное имя : H:\Gidravlika.2010.HDTVRip.Files-x.aviФормат : AVIФормат/Информация : Audio Video InterleaveРазмер файла : 1,37 ГбайтПродолжительность : 1 ч. 39 м.Общий поток : 1967 Кбит/секПрограмма кодирования : VirtualDubMod 1.5.10.3 | www.virtualdub-fr.org || (build 2550/release)Библиотека кодирования : VirtualDubMod build 2550/release
ВидеоИдентификатор : 0Формат : MPEG-4 VisualПрофиль формата : Advanced Simple@L5Параметр BVOP формата : 1Параметр QPel формата : НетПараметр GMC формата : Без точки переходаПараметр матрицы формата : ВыборочнаяИдентификатор кодека : XVIDИдентификатор кодека/Подсказка : XviDПродолжительность : 1 ч. 39 м.Битрейт : 1765 Кбит/секШирина : 720 пикс.Высота : 400 пикс.Соотношение сторон : 16:9Частота кадров : 25,000 кадр/секЦветовое пространство : YUVПодвыборка цветности : 4:2:0Битовая глубина : 8 битТип развёртки : ПрогрессивнаяМетод сжатия : С потерямиБит/(Пиксели*Кадры) : 0.245Размер потока : 1,23 Гбайт (90%)Библиотека кодирования : XviD 73
АудиоИдентификатор : 1Формат : AC-3Формат/Информация : Audio Coding 3Расширение режима : CM (complete main)Идентификатор кодека : 2000Продолжительность : 1 ч. 39 м.Вид битрейта : ПостоянныйБитрейт : 192 Кбит/секКаналы : 2 каналаРасположение каналов : Front: L RЧастота : 48,0 КГцБитовая глубина : 16 битМетод сжатия : С потерямиРазмер потока : 137 Мбайт (10%)Выравнивание : Разделение по промежуткамПродолжительность промежутка : 40 мс. (1,00 видеокадр)Время предзагрузки промежутка : 500 ms
Раздача группы:
Рип:
Отдельное спасибо wowa63 за предоставление материала.
Скриншот c названием фильма Скриншоты
Скачать

Скачать торрент!

Как скачивать? · Что такое торрент? · Рейтинг и ограничения

Сайт не распространяет и не хранит электронные версии произведений, а лишь предоставляет доступ к создаваемому пользователями каталогу ссылок на торрент-файлы, которые содержат только списки хеш-сумм

[Профиль] [ЛС]
Показать сообщения:    
Ответить на тему

Текущее время: Сегодня 10:07

Часовой пояс: GMT + 4



Вы не можете начинать темы
Вы не можете отвечать на сообщения
Вы не можете редактировать свои сообщения
Вы не можете удалять свои сообщения
Вы не можете голосовать в опросах
Вы не можете прикреплять файлы к сообщениям
Вы не можете скачивать файлы