Босоногий / Barefoot Kid / The Bare-Footed Kid (Джонни То / Johnnie To, Патрик Лун / Patrick Leung, Джонни Мак / Johnny Mak) [1993, Гонконг, Китай, боевик, драма, кунг-фу, DVDRip] AVO [А. Дольский]

Ответить на тему
 
Автор Сообщение

user ®

Стаж: 13 лет

Сообщений: 15071

Пост Пост: #1 от 25-Янв-2015 15:12

[Цитировать]

Босоногий / Barefoot Kid / The Bare-Footed Kid- -Страна: Гонконг, Китай
Жанр: боевик, драма, кунг-фу
Год выпуска: 1993
Продолжительность: 01:23:10-Перевод: Авторский (одноголосый закадровый) [А. Дольский]-Cубтитры: нет
Оригинальная аудиодорожка: нет
Режиссер: Джонни То / Johnnie To, Патрик Лун / Patrick Leung, Джонни Мак / Johnny Mak
В ролях: Аарон Квок, Мэгги Чун, Ланг Ти, Чянь-лянь Ву, Кеннет Цан, Пол Чун, Сиу-Фай Чунг, Тиэт Во Чу, Бенни Лай...
Описание: В город прибывает молодой бродяга Чуан, босоногий и потому западающий на всю обувь, которую видит по дороге. Его приютила молодая вдова, содержащая фабрику по производству красок совместно с другом отца Чуана, Туаном. Однако местный богатей коррумпировал городскую власть, и его бизнес конкретно не тянет, краски не того уровня. И, чтобы добиться согласия от вдовы на продажу фабрики, он начинает плести всяческие козни против нее, под конец переманивая к себе и самого Чуана, к слову, непревзойденного мастера боевых искусств.
Релиз от -
Сэмпл: http://multi-up.com/1028715
Качество видео: DVDRip
Формат видео: AVI
Видео: MPEG-4 Visual at 1118 Кбит/сек; 688 x 368 (1.870) at 25.000 fps
Аудио: MPEG Audio at 128 Кбит/сек; 2 канала, 48,0 КГц
Автор -
MediaInfo
Общее
Полное имя : D:\Фильмы\Азиатские\Босоногий\The Bare-Footed Kid.1993.DVDRip.XviD.745MB. rip by [Assassin's Creed].avi
Формат : AVI
Формат/Информация : Audio Video Interleave
Размер файла : 747 Мбайт
Продолжительность : 1 ч. 23 м.
Общий поток : 1256 Кбит/сек
Программа кодирования : VirtualDubMod 1.5.10.3 | www.virtualdub-fr.org || (build 2550/release)
Библиотека кодирования : VirtualDubMod build 2550/release
Видео
Идентификатор : 0
Формат : MPEG-4 Visual
Профиль формата : Advanced Simple@L5
Параметр BVOP формата : 1
Параметр QPel формата : Нет
Параметр GMC формата : Без точки перехода
Параметр матрицы формата : Default (MPEG)
Идентификатор кодека : XVID
Идентификатор кодека/Подсказка : XviD
Продолжительность : 1 ч. 23 м.
Битрейт : 1118 Кбит/сек
Ширина : 688 пикселей
Высота : 368 пикселей
Соотношение сторон : 1,85:1
Частота кадров : 25,000 кадров/сек
Цветовое пространство : YUV
Субдискретизация насыщенности : 4:2:0
Битовая глубина : 8 бит
Тип развёртки : Прогрессивная
Метод сжатия : С потерями
Бит/(Пиксели*Кадры) : 0.177
Размер потока : 665 Мбайт (89%)
Библиотека кодирования : XviD 1.2.1 (UTC 2008-12-04)
Аудио
Идентификатор : 1
Формат : MPEG Audio
Версия формата : Version 1
Профиль формата : Layer 3
Идентификатор кодека : 55
Идентификатор кодека/Подсказка : MP3
Продолжительность : 1 ч. 22 м.
Вид битрейта : Постоянный
Битрейт : 128 Кбит/сек
Каналы : 2 канала
Частота : 48,0 КГц
Метод сжатия : С потерями
Размер потока : 75,9 Мбайт (10%)
Выравнивание : Соединение по промежуткам
Продолжительность промежутка : 40 мс. (1,00 видеокадр)
Время предзагрузки промежутка : 504 мс.
Библиотека кодирования : LAME3.99r
Настройки программы : -m s -V 4 -q 2 -lowpass 17 -b 128
Скриншот c названием фильма Скриншоты
Скачать

Скачать торрент! Босоногий / Barefoot Kid / The Bare-Footed Kid (Джонни То / Johnnie To, Патрик Лун / Patrick Leung, Джонни Мак / Johnny Mak) [1993, Гонконг, Китай, боевик, драма, кунг-фу, DVDRip] AVO [А. Дольский]

Как скачивать? · Что такое торрент? · Рейтинг и ограничения

Сайт не распространяет и не хранит электронные версии произведений, а лишь предоставляет доступ к создаваемому пользователями каталогу ссылок на торрент-файлы, которые содержат только списки хеш-сумм

[Профиль] [ЛС]
Показать сообщения:    
Ответить на тему

Текущее время: Сегодня 12:30

Часовой пояс: GMT + 4



Вы не можете начинать темы
Вы не можете отвечать на сообщения
Вы не можете редактировать свои сообщения
Вы не можете удалять свои сообщения
Вы не можете голосовать в опросах
Вы не можете прикреплять файлы к сообщениям
Вы не можете скачивать файлы