Звезда (Николай Лебедев) [2002, боевик, драма, приключения, военный, BDRip-AVC]Sub Rus, Eng

Ответить на тему
 
Автор Сообщение

user ®

Стаж: 7 лет 7 месяцев

Сообщений: 20008

Пост Пост: #1 от 25-Янв-2015 12:06

[Цитировать]

Звезда Жанр: боевик, драма, приключения, военный
Год выпуска: 2002
Продолжительность: 01:38:37
Режиссёр: Николай Лебедев
В ролях: Игорь Петренко, Артём Семакин, Алексей Панин, Алексей Кравченко, Анатолий Гущин, Амаду Мамадаков, Юрий Лагута, Екатерина Вуличенко, Андрей Егоров, Сергей Миллер, Геннадий Воротников, Александр Ефимов, Александр Наумов, Александр Дьяченко, Олег Гущин, Иван Кокорин, Александра Чичкова, Сергей Рудзевич
Описание: Лето 1944 года, Красная Армия ведет бои на подступах к западной границе СССР. В тыл врага отправляется группа разведчиков, молодых ребят. Их позывные — «Звезда». Они должны выполнить задание, от которого зависит судьба фронта. И они выполняют его, но цена этого задания оказывается слишком дорогой. Полный напряжения и драматизма, фильм заставляет вспомнить, кто победил в этой войне.
Качество видео: BDRip-AVC |[url=http://***/forum/viewtopic.php?t=3141398]Blu-ray 1080p[/url]|
Формат видео: MKV
Видео: AVC (x264), 1084x648 (1.67:1), ~3830 kbps, 23.976 fps, 0.227 bpp
Аудио: AС3, 48 KHz, 6 ch, 448 kbps
Cубтитры: русские, английские
Формат субтитров: softsub (SRT)

Релиз от: nnlabetik

x264|MediaInfo
x264 [info]

Crop(56, 0, -57, -0)
raw [info]: 1084x648p 1:1 @ 24000/1001 fps (cfr)
x264 [info]: using SAR=1/1
x264 [info]: frame I:990 Avg QP:14.91 size: 93940
x264 [info]: frame P:30060 Avg QP:17.52 size: 39427
x264 [info]: frame B:110818 Avg QP:18.51 size: 14026
x264 [info]: consecutive B-frames: 2.1% 2.7% 7.0% 15.9% 16.7% 44.5% 6.1% 1.7% 0.9% 0.4% 0.2% 0.3% 1.5%
x264 [info]: mb I I16..4: 3.8% 86.0% 10.2%
x264 [info]: mb P I16..4: 1.2% 15.4% 1.1% P16..4: 29.2% 36.8% 14.7% 0.0% 0.0% skip: 1.6%
x264 [info]: mb B I16..4: 0.2% 1.4% 0.1% B16..8: 33.9% 24.3% 4.7% direct: 7.8% skip:27.5% L0:42.5% L1:44.2% BI:13.3%
x264 [info]: 8x8 transform intra:86.0% inter:58.7%
x264 [info]: direct mvs spatial:98.3% temporal:1.7%
x264 [info]: coded y,uvDC,uvAC intra: 88.5% 89.7% 66.0% inter: 37.4% 31.3% 10.3%
x264 [info]: i16 v,h,dc,p: 70% 9% 6% 15%
x264 [info]: i8 v,h,dc,ddl,ddr,vr,hd,vl,hu: 9% 5% 7% 10% 15% 14% 13% 12% 13%
x264 [info]: i4 v,h,dc,ddl,ddr,vr,hd,vl,hu: 12% 5% 9% 8% 15% 15% 13% 11% 12%
x264 [info]: i8c dc,h,v,p: 46% 21% 17% 16%
x264 [info]: ref P L0: 49.9% 20.3% 9.2% 6.5% 4.1% 4.2% 3.0% 2.5% 0.3%
x264 [info]: ref B L0: 75.7% 11.5% 4.8% 2.9% 1.9% 1.7% 0.9% 0.4%
x264 [info]: ref B L1: 94.7% 5.3%
x264 [info]: kb/s:3829.62
encoded 141868 frames, 3.67 fps, 3829.62 kb/s
General
Unique ID : 211569761890954798745038277957985633867 (0x9F2ADA9E1F823380A85B8F427B3A064B)
Complete name : ...\Zvezda_2002.BDRip.(AVC).mkv
Format : Matroska
Format version : Version 4 / Version 2
File size : 2.95 GiB
Duration : 1h 38mn
Overall bit rate : 4 279 Kbps
Movie name : Звезда / 2002 -=NN@LIFE=-
Encoded date : UTC 2015-01-25 04:54:22
Writing application : mkvmerge v7.5.0 ('Glass Culture') 32bit built on Jan 4 2015 16:37:25
Writing library : libebml v1.3.1 + libmatroska v1.4.2
Video
ID : 1
Format : AVC
Format/Info : Advanced Video Codec
Format profile : High@L4.1
Format settings, CABAC : Yes
Format settings, ReFrames : 9 frames
Codec ID : V_MPEG4/ISO/AVC
Duration : 1h 38mn
Bit rate : 3 830 Kbps
Width : 1 084 pixels
Height : 648 pixels
Display aspect ratio : 1.673
Frame rate mode : Constant
Frame rate : 23.976 fps
Color space : YUV
Chroma subsampling : 4:2:0
Bit depth : 8 bits
Scan type : Progressive
Bits/(Pixel*Frame) : 0.227
Stream size : 2.58 GiB (88%)
Title : Rip by nnlabetik
Writing library : x264 core 144 r2525 40bb568
Encoding settings : cabac=1 / ref=9 / deblock=1:-2:-1 / analyse=0x3:0x113 / me=umh / subme=11 / psy=1 / psy_rd=1.00:0.00 / mixed_ref=1 / me_range=32 / chroma_me=1 / trellis=2 / 8x8dct=1 / cqm=0 / deadzone=21,11 / fast_pskip=0 / chroma_qp_offset=-2 / threads=4 / lookahead_threads=1 / sliced_threads=0 / nr=0 / decimate=0 / interlaced=0 / bluray_compat=0 / constrained_intra=0 / bframes=12 / b_pyramid=2 / b_adapt=2 / b_bias=0 / direct=3 / weightb=1 / open_gop=0 / weightp=0 / keyint=240 / keyint_min=23 / scenecut=40 / intra_refresh=0 / rc_lookahead=60 / rc=2pass / mbtree=0 / bitrate=3830 / ratetol=0.9 / qcomp=0.60 / qpmin=0 / qpmax=69 / qpstep=4 / cplxblur=20.0 / qblur=0.5 / vbv_maxrate=62500 / vbv_bufsize=78125 / nal_hrd=none / filler=0 / ip_ratio=1.35 / pb_ratio=1.25 / aq=1:1.00
Language : Russian
Default : Yes
Forced : No
Color primaries : BT.709
Transfer characteristics : BT.709
Matrix coefficients : BT.709
Color range : Limited
Audio
ID : 2
Format : AC-3
Format/Info : Audio Coding 3
Mode extension : CM (complete main)
Format settings, Endianness : Big
Codec ID : A_AC3
Duration : 1h 38mn
Bit rate mode : Constant
Bit rate : 448 Kbps
Channel(s) : 6 channels
Channel positions : Front: L C R, Side: L R, LFE
Sampling rate : 48.0 KHz
Bit depth : 16 bits
Compression mode : Lossy
Stream size : 316 MiB (10%)
Title : AC3 @ 5.1 ch 448 kbps
Language : Russian
Default : Yes
Forced : No
Text #1
ID : 3
Format : UTF-8
Codec ID : S_TEXT/UTF8
Codec ID/Info : UTF-8 Plain Text
Language : Russian
Default : No
Forced : No
Text #2
ID : 4
Format : UTF-8
Codec ID : S_TEXT/UTF8
Codec ID/Info : UTF-8 Plain Text
Language : English
Default : No
Forced : No
Menu
00:00:00.000 : :Chapter 01
00:07:28.448 : :Chapter 02
00:15:19.919 : :Chapter 03
00:21:09.476 : :Chapter 04
00:32:02.921 : :Chapter 05
00:42:12.530 : :Chapter 06
00:47:12.830 : :Chapter 07
00:54:58.295 : :Chapter 08
01:03:53.830 : :Chapter 09
01:12:15.331 : :Chapter 10
01:17:40.656 : :Chapter 11
01:22:08.924 : :Chapter 12
Скриншоты Сравнение
Сравнение с раздачей
[url=http://***/forum/viewtopic.php?t=3673063]http://***/forum/viewtopic.php?t=3673063[/url]
http://screenshotcomparison.com/comparison/111422/
Скачать

Скачать торрент!

Как скачивать? · Что такое торрент? · Рейтинг и ограничения

Сайт не распространяет и не хранит электронные версии произведений, а лишь предоставляет доступ к создаваемому пользователями каталогу ссылок на торрент-файлы, которые содержат только списки хеш-сумм

[Профиль] [ЛС]
Показать сообщения:    
Ответить на тему

Текущее время: Сегодня 00:07

Часовой пояс: GMT + 4



Вы не можете начинать темы
Вы не можете отвечать на сообщения
Вы не можете редактировать свои сообщения
Вы не можете удалять свои сообщения
Вы не можете голосовать в опросах
Вы не можете прикреплять файлы к сообщениям
Вы не можете скачивать файлы