Прекрасная танцовщица / Abhinetri (Субодх Мукхерджи / Subodh Mukherji) [1970, Индия, Мелодрама, DVDRip] MVO (Формат АВ)

Ответить на тему
 
Автор Сообщение

user ®

Стаж: 12 лет

Сообщений: 15092

Пост Пост: #1 от 25-Янв-2015 09:00

[Цитировать]

Прекрасная танцовщица / Abhinetri
Страна: Индия
Жанр: Мелодрама
Год выпуска: 1970
Продолжительность: 02:38:20
Перевод: Профессиональный (многоголосый закадровый) Формат АВ
Cубтитры: нет
Режиссер: Субодх Мукхерджи / Subodh Mukherji
В ролях: Хема Малини, Шаши Капур, Нирупа Рой, Деб Мукхерджи, Назима, Насир Хуссейн, Бэла Бос
Описание: Случайная встреча ассистента ученого, Шекхара, и певицы-танцовщицы Анжаны, перерастает в любовь. У Шекхара есть мама, живущая отдельно от него, Анжана - сирота с детства. С одобрения его матери они женятся и Анжана уходит со сцены, благодаря чему супруги прожили несколько месяцев в любви и согласии. Но она видит, что муж проводит больше времени в лаборатории, чем с ней, и решает вернуться к выступлениям на сцене, которые он не одобрял. Вспыхнувшая ссора приводит к расставанию супругов, но ради спокойствия навестившей его матери, они решают сыграть перед ней счастливую пару. Удастся ли им провести повидавшую жизнь женщину?
Доп. информация: Исходник [url=http://***/forum/viewtopic.php?t=2544780]DVD-5[/url] (СПАСИБО! irinarozze)
Сэмпл: http://multi-up.com/1028650
Качество видео: DVDRip
Формат видео: AVI
Видео: XviD build 50, 640x480 (1.33:1), 23.976 fps, 1183 kbps avg
Аудио: MPEG Layer 3, 48 kHz, 2/0 (L,R) ch, 128.00 kbps avg
MediaInfo
General
Complete name : D:\Prekrasnaya.tantsovschitsa.1970.XviD.DVDRip-Dego.avi
Format : AVI
Format/Info : Audio Video Interleave
File size : 1.46 GiB
Duration : 2h 38mn
Overall bit rate : 1 321 Kbps
Writing application : VirtualDubMod 1.5.10.2 (build 2540/release)
Writing library : VirtualDubMod build 2540/release
Video
ID : 0
Format : MPEG-4 Visual
Format profile : AdvancedSimple@L5
Format settings, BVOP : Yes
Format settings, QPel : No
Format settings, GMC : No warppoints
Format settings, Matrix : Custom
Codec ID : XVID
Codec ID/Hint : XviD
Duration : 2h 38mn
Bit rate : 1 183 Kbps
Width : 640 pixels
Height : 480 pixels
Display aspect ratio : 4/3
Frame rate : 23.976 fps
Resolution : 24 bits
Colorimetry : 4:2:0
Scan type : Progressive
Bits/(Pixel*Frame) : 0.161
Stream size : 1.31 GiB (90%)
Writing library : XviD 1.2.1 (UTC 2008-12-04)
Audio
ID : 1
Format : MPEG Audio
Format version : Version 1
Format profile : Layer 3
Codec ID : 55
Codec ID/Hint : MP3
Duration : 2h 38mn
Bit rate mode : Constant
Bit rate : 128 Kbps
Channel(s) : 2 channels
Sampling rate : 48.0 KHz
Resolution : 16 bits
Stream size : 145 MiB (10%)
Alignment : Aligned on interleaves
Interleave, duration : 42 ms (1.00 video frame)
Interleave, preload duration : 504 ms
Writing library : LAME3.98r
Encoding settings : -m j -V 4 -q 2 -lowpass 17 -b 128
Скриншоты
Скачать

Скачать торрент! Прекрасная танцовщица / Abhinetri (Субодх Мукхерджи / Subodh Mukherji) [1970, Индия, Мелодрама, DVDRip] MVO (Формат АВ)

Как скачивать? · Что такое торрент? · Рейтинг и ограничения

Сайт не распространяет и не хранит электронные версии произведений, а лишь предоставляет доступ к создаваемому пользователями каталогу ссылок на торрент-файлы, которые содержат только списки хеш-сумм

[Профиль] [ЛС]
Показать сообщения:    
Ответить на тему

Текущее время: Сегодня 15:40

Часовой пояс: GMT + 4



Вы не можете начинать темы
Вы не можете отвечать на сообщения
Вы не можете редактировать свои сообщения
Вы не можете удалять свои сообщения
Вы не можете голосовать в опросах
Вы не можете прикреплять файлы к сообщениям
Вы не можете скачивать файлы