Арктур-гончий пёс (Галина Самойлова) [1995, драма, фильмы о собаках, SATRip]

Ответить на тему
 
Автор Сообщение

user ®

Стаж: 7 лет 7 месяцев

Сообщений: 20008

Пост Пост: #1 от 25-Янв-2015 09:00

[Цитировать]

Арктур - гончий пёс
Жанр: драма, фильмы о собаках
Год выпуска: 1995
Продолжительность: 00:50:21
Режиссёр: Галина Самойлова
В ролях: Василий Бочкарёв, Георгий Куликов, Валерий Носик
В главной собачьей роли: русская гончая Альт (дрессировщик Иван Поляков)
Описание: По рассказу Юрия Казакова.
О судьбе слепой собаки, которую приютил у себя деревенский доктор. Он дал ей имя по названию голубой звезды - Арктур. Однажды приезжий охотник взял собаку в лес и с тех пор жизнь Арктура изменилась, его притягивал запах леса. Он стал настоящим гончим псом и загнал лису. После этого многие охотники пытались перекупить у доктора собаку, но хозяин не соглашался.
К сожалению, однажды собака не вернулась из леса.
Сэмпл: http://multi-up.com/1028653
Качество видео: SATRip
Формат видео: AVI
Видео: XVID, 720 х 480, 25,0 кадров/сек, 1894 Кбит/сек, 0.219 Бит/(Пиксели*Кадры)
Аудио: MP3, 48,0 КГц, 160 Кбит/сек, Постоянный, 2 канала
MediaInfo
Полное имя : C:\фильмы\02 возможно для раздачи\Арктур-гончий пёс\Арктур - гончий пёс (1995г).avi
Формат : AVI
Формат/Информация : Audio Video Interleave
Размер файла : 743 Мбайт
Продолжительность : 50 м.
Общий поток : 2064 Кбит/сек
Видео
Идентификатор : 0
Формат : MPEG-4 Visual
Профиль формата : Advanced Simple@L4
Параметр BVOP формата : Нет
Параметр QPel формата : Нет
Параметр GMC формата : Без точки перехода
Параметр матрицы формата : Default (H.263)
Идентификатор кодека : XVID
Идентификатор кодека/Подсказка : XviD
Продолжительность : 50 м.
Битрейт : 1894 Кбит/сек
Ширина : 720 пикселей
Высота : 480 пикселей
Соотношение сторон : 3:2
Частота кадров : 25,000 кадров/сек
Стандарт вещания : NTSC
Цветовое пространство : YUV
Субдискретизация насыщенности : 4:2:0
Битовая глубина : 8 бит
Тип развёртки : Прогрессивная
Метод сжатия : С потерями
Бит/(Пиксели*Кадры) : 0.219
Размер потока : 682 Мбайт (92%)
Библиотека кодирования : Lavc53.42.0
Аудио
Идентификатор : 1
Формат : MPEG Audio
Версия формата : Version 1
Профиль формата : Layer 3
Идентификатор кодека : 55
Идентификатор кодека/Подсказка : MP3
Продолжительность : 50 м.
Продолжительность оригинала : 50 м.
Вид битрейта : Постоянный
Битрейт : 160 Кбит/сек
Каналы : 2 канала
Частота : 48,0 КГц
Метод сжатия : С потерями
Размер потока : 57,6 Мбайт (8%)
Выравнивание : Соединение по промежуткам
Продолжительность промежутка : 40 мс. (1,00 видеокадр)
Скриншот c названием фильма Скриншоты фильмы о собаках и волках
[url=http://***/forum/viewtopic.php?t=1144862]http://***/forum/viewtopic.php?t=1144862[/url]
предыдущие или аналогичные раздачи
пока нет
прочитать рассказ источник рипа
Скачать

Скачать торрент!

Как скачивать? · Что такое торрент? · Рейтинг и ограничения

Сайт не распространяет и не хранит электронные версии произведений, а лишь предоставляет доступ к создаваемому пользователями каталогу ссылок на торрент-файлы, которые содержат только списки хеш-сумм

[Профиль] [ЛС]
Показать сообщения:    
Ответить на тему

Текущее время: Сегодня 12:28

Часовой пояс: GMT + 4



Вы не можете начинать темы
Вы не можете отвечать на сообщения
Вы не можете редактировать свои сообщения
Вы не можете удалять свои сообщения
Вы не можете голосовать в опросах
Вы не можете прикреплять файлы к сообщениям
Вы не можете скачивать файлы