Вакансия на жертву 2: Первый дубль / Vacancy 2: The First Cut (Эрик Бросс / Eric Bross) [2008, США, ужасы, триллер, WEB-DL 720p] MVO + Sub Rus, Eng + Original Eng

Ответить на тему
 
Автор Сообщение

user ®

Стаж: 7 лет 7 месяцев

Сообщений: 20008

Пост Пост: #1 от 24-Янв-2015 16:12

[Цитировать]

Вакансия на жертву 2: Первый дубль / Vacancy 2: The First Cut Страна: США
Студия: Stage 6 Films
Жанр: ужасы, триллер
Год выпуска: 2008
Продолжительность: 01:25:59
Перевод: Профессиональный (многоголосый закадровый) [DVD5.R5 - ВидеоСервис, 2009]
Cубтитры: русские, английские
Оригинальная аудиодорожка: английский
Режиссер: Эрик Бросс / Eric Bross
В ролях: Агнес Брукнер, Дэвид Москоу, Скотт Дж. Андерсон, Эрджей Смит, Тревор Райт, Биу Биллингсли, Брайан Клагман, Хуанита Дженнингс, Нельсон Ли, Гвендолин Йо, Лола Дэвидсон, Крис Нельсон
Описание: Владельцы и по совместительству служащие одного небольшого придорожного отеля, развлекаются тем, что установили скрытые камеры в комнатах. Ведь когда в мотель приезжают влюбленные парочки, за ними так забавно наблюдать, а потом можно и продать это видео для любителей подобной клубнички. Каждый развлекается как умеет. Вот и серийный-маньяк убийца заглянул на огонек, чтобы нескучно, в женской компании, провести вечер…
Убийство девушки маньяком оказалось заснято на пленку, но хозяева отеля не торопятся отдавать улики полиции, они решают поставить дело на поток и заработать на этом. Трое друзей, решивших остановиться в этом отеле на ночь и не подозревают, что они попали в западню и окружающее их — декорации к жуткому сценарию убийства, где ребятам уготована роль жертв…- -Тип релиза: WEB-DL 720p
Контейнер: MKV
Видео: MPEG-4 AVC Video, 1280x720 / 1,78:1 (16:9) / ~3795 kbps / 23,976 fps / High@L3.1
Аудио 1: Russian: AC3, 6 ch, 448 kbps, 48 kHz
Аудио 2: English: AC3, 6 ch, 384 kbps, 48 kHz
Формат субтитров: softsub (SRT)
Главы:
MediaInfo
Общее
Уникальный идентификатор : 207304564321651438606562792286331090441 (0x9BF56824468E29BC9D810CF7BC903609)
Полное имя : N:\Вакансия на жертву 2_ Первый дубль 2008.WEB-DL.720p.ПМ.Eng.mkv
Формат : Matroska
Версия формата : Version 4 / Version 2
Размер файла : 2,78 Гбайт
Продолжительность : 1 ч. 25 м.
Общий поток : 4630 Кбит/сек
Название фильма : Vacancy 2: The First Cut (2008)
Дата кодирования : UTC 2014-12-11 14:25:04
Программа кодирования : mkvmerge v6.9.1 ('Blue Panther') 32bit built on Apr 18 2014 18:15:44
Библиотека кодирования : libebml v1.3.0 + libmatroska v1.4.1
Видео
Идентификатор : 1
Формат : AVC
Формат/Информация : Advanced Video Codec
Профиль формата : High@L3.1
Параметр CABAC формата : Нет
Параметр ReFrames формата : 2 кадра
Идентификатор кодека : V_MPEG4/ISO/AVC
Продолжительность : 1 ч. 25 м.
Битрейт : 3706 Кбит/сек
Ширина : 1280 пикселей
Высота : 720 пикселей
Соотношение сторон : 16:9
Режим частоты кадров : Постоянный
Частота кадров : 23,976 кадра/сек
Цветовое пространство : YUV
Субдискретизация насыщенности : 4:2:0
Битовая глубина : 8 бит
Тип развёртки : Прогрессивная
Бит/(Пиксели*Кадры) : 0.168
Размер потока : 2,23 Гбайт (80%)
Язык : English
Default : Да
Forced : Нет
Основные цвета : BT.709
Характеристики трансфера : BT.709
Коэффициенты матрицы : BT.709
colour_range : Limited
Аудио #1
Идентификатор : 2
Формат : AC-3
Формат/Информация : Audio Coding 3
Расширение режима : CM (complete main)
Параметр Endianness формата : Big
Идентификатор кодека : A_AC3
Продолжительность : 1 ч. 25 м.
Вид битрейта : Постоянный
Битрейт : 448 Кбит/сек
Каналы : 6 каналов
Расположение каналов : Front: L C R, Side: L R, LFE
Частота : 48,0 КГц
Битовая глубина : 16 бит
Метод сжатия : С потерями
Размер потока : 276 Мбайт (10%)
Заголовок : AC3 6ch 448kbps - многоголосый (DVD5.R5 - ВидеоСервис, 2009)
Язык : Russian
Default : Да
Forced : Нет
Аудио #2
Идентификатор : 3
Формат : AC-3
Формат/Информация : Audio Coding 3
Расширение режима : CM (complete main)
Параметр Endianness формата : Big
Идентификатор кодека : A_AC3
Продолжительность : 1 ч. 25 м.
Вид битрейта : Постоянный
Битрейт : 384 Кбит/сек
Каналы : 6 каналов
Расположение каналов : Front: L C R, Side: L R, LFE
Частота : 48,0 КГц
Битовая глубина : 16 бит
Метод сжатия : С потерями
Размер потока : 236 Мбайт (8%)
Заголовок : AC3 6ch 384kbps - original
Язык : English
Default : Нет
Forced : Нет
Текст #1
Идентификатор : 4
Формат : UTF-8
Идентификатор кодека : S_TEXT/UTF8
Идентификатор кодека/Информация : UTF-8 Plain Text
Язык : Russian
Default : Нет
Forced : Нет
Текст #2
Идентификатор : 5
Формат : UTF-8
Идентификатор кодека : S_TEXT/UTF8
Идентификатор кодека/Информация : UTF-8 Plain Text
Язык : English
Default : Нет
Forced : Нет
Меню
00:00:00.000 : en:Chapter 1
00:03:16.000 : en:Chapter 2
00:04:31.000 : en:Chapter 3
00:07:52.000 : en:Chapter 4
00:09:43.000 : en:Chapter 5
00:12:49.000 : en:Chapter 6
00:15:17.000 : en:Chapter 7
00:18:40.000 : en:Chapter 8
00:20:53.000 : en:Chapter 9
00:24:21.000 : en:Chapter 10
00:28:44.000 : en:Chapter 11
00:32:39.000 : en:Chapter 12
00:36:49.000 : en:Chapter 13
00:40:21.000 : en:Chapter 14
00:42:06.000 : en:Chapter 15
00:45:49.000 : en:Chapter 16
00:48:32.000 : en:Chapter 17
00:51:39.000 : en:Chapter 18
00:54:29.000 : en:Chapter 19
00:57:19.000 : en:Chapter 20
01:00:12.000 : en:Chapter 21
01:02:41.000 : en:Chapter 22
01:06:28.000 : en:Chapter 23
01:08:48.000 : en:Chapter 24
01:11:25.000 : en:Chapter 25
01:14:57.000 : en:Chapter 26
01:18:16.000 : en:Chapter 27
01:19:50.000 : en:Chapter 28
Скриншоты
Скачать

Скачать торрент!

Как скачивать? · Что такое торрент? · Рейтинг и ограничения

Сайт не распространяет и не хранит электронные версии произведений, а лишь предоставляет доступ к создаваемому пользователями каталогу ссылок на торрент-файлы, которые содержат только списки хеш-сумм

[Профиль] [ЛС]
Показать сообщения:    
Ответить на тему

Текущее время: Сегодня 06:28

Часовой пояс: GMT + 4



Вы не можете начинать темы
Вы не можете отвечать на сообщения
Вы не можете редактировать свои сообщения
Вы не можете удалять свои сообщения
Вы не можете голосовать в опросах
Вы не можете прикреплять файлы к сообщениям
Вы не можете скачивать файлы