Бакалавр искусств / B.A. Pass (Аджай Бахл / Ajay Bahl) [2012, Индия, драма, WEBRip] DVO (DeadSno & den904)

Ответить на тему
 
Автор Сообщение

user ®

Стаж: 12 лет

Сообщений: 15092

Пост Пост: #1 от 24-Янв-2015 08:24

[Цитировать]

Бакалавр искусств / B.A. Pass
Страна: Индия
Жанр: драма
Год выпуска: 2012
Продолжительность: 01:39:26-Перевод: Любительский (двухголосный закадровый [DeadSno & den904] )
Cубтитры: нет
Режиссер: Аджай Бахл / Ajay Bahl-В ролях: Шилпа Шукла,Шадаб Камал,Раджеш Шарма,Дибиенду Бхаттачарья.-Описание: «Бакалавр искусств» - это рассказ о непорочной привязанности и резко выраженной, прямой трагедии, туго стягивающей весь ад большого города с яркими неоновыми огнями и стеклянных витрин, на полках которых полно дешёвых кукол, которых уже нет смысла скрывать.-Доп. информация
: Победитель:
Лучший индийский фильм – Osian’s Cinefan Film Festival, 2012;
Лучший иностранный фильм – Prix Du Public, D’Asie Du Sud, Paris, 2013;
Лучший актёр - Osian’s Cinefan Film Festival, 2012;
Лучший актёр второго плана – South Asian Film Festival, New Jersey, 2012;
Номинации:
Номинация «Золотой зенит» - World Film Festival First Features, 2012
Номинация «Лучший режиссёр» - New York Indian Film Festival, 2013
Открывающий фильм – Imagine India Film Festival, Madrid, Spain, 2013
Номинация «Лучший актёр» - New York Indian Film Festival, 2013
Номинация «Лучший фильм» - New York Indian Film Festival, 2013
Номинация «Лучший сценарий» - New York Indian Film Festival, 2013
Официальный выбор – Jeounju International Film Festival, South Korea, 2013
Официальный выбор – St. Peterburg International Film Festival, 2012
Официальный выбор – Imgineindia International Film Festival, Barcelona, 2013
Официальный выбор – Kolkata International Film Festival, India, 2012
Официальный выбор – Bengaluru International Film Festival, India, 2012
Официальный выбор – Silk Screen Asian American Film Festival, Pittsburgh, 2013
Официальный выбор – London Indian Film Festival, London, 2013
Сэмпл: http://multi-up.com/1028372

Качество видео: WEBRip
Формат видео: AVI
Видео: XVID, 640х272, 2,35:1, 23,976 кадра/сек, 1878 Кбит/сек
Аудио: AC-3, 48,0 КГц, 192 Кбит/сек, 2 канала: Front: L R
MediaInfo
Формат : AVI
Формат/Информация : Audio Video Interleave
Размер файла : 1,44 Гбайт
Продолжительность : 1 ч. 39 м.
Общий поток : 2080 Кбит/сек
Программа кодирования : VirtualDubMod 1.5.10.2 (build 2540/release)
Библиотека кодирования : VirtualDubMod build 2540/release
Видео
Идентификатор : 0
Формат : MPEG-4 Visual
Профиль формата : Advanced Simple@L5
Параметр BVOP формата : 1
Параметр QPel формата : Нет
Параметр GMC формата : Без точки перехода
Параметр матрицы формата : Default (MPEG)
Идентификатор кодека :
Идентификатор кодека/Подсказка : XviD
Продолжительность : 1 ч. 39 м.
Битрейт : 1878 Кбит/сек
Ширина : 640 пикселей
Высота : 272 пикселя
Соотношение сторон : 2,35:1
Частота кадров : 23,976 кадра/сек
Цветовое пространство : YUV
Субдискретизация насыщенности : 4:2:0
Битовая глубина : 8 бит
Тип развёртки : Прогрессивная
Метод сжатия : С потерями
Бит/(Пиксели*Кадры) : 0.450
Размер потока : 1,30 Гбайт (90%)
Библиотека кодирования : XviD 1.2.1 (UTC 2008-12-04)
Аудио
Идентификатор : 1
Формат : AC-3
Формат/Информация : Audio Coding 3
Расширение режима : CM (complete main)
Параметр Endianness формата : Big
Идентификатор кодека : 2000
Продолжительность : 1 ч. 39 м.
Вид битрейта : Постоянный
Битрейт : 192 Кбит/сек
Каналы : 2 канала
Расположение каналов : Front: L R
Частота : 48,0 КГц
Битовая глубина : 16 бит
Метод сжатия : С потерями
Размер потока : 137 Мбайт (9%)
Выравнивание : Разделение по промежуткам
Продолжительность промежутка : 42 мс. (1,00 видеокадр)
Время предзагрузки промежутка : 500 мс.
Скриншот c названием фильма Скриншоты
Скачать

Скачать торрент! Бакалавр искусств / B.A. Pass (Аджай Бахл / Ajay Bahl) [2012, Индия, драма, WEBRip] DVO (DeadSno & den904)

Как скачивать? · Что такое торрент? · Рейтинг и ограничения

Сайт не распространяет и не хранит электронные версии произведений, а лишь предоставляет доступ к создаваемому пользователями каталогу ссылок на торрент-файлы, которые содержат только списки хеш-сумм

[Профиль] [ЛС]
Показать сообщения:    
Ответить на тему

Текущее время: Сегодня 12:46

Часовой пояс: GMT + 4



Вы не можете начинать темы
Вы не можете отвечать на сообщения
Вы не можете редактировать свои сообщения
Вы не можете удалять свои сообщения
Вы не можете голосовать в опросах
Вы не можете прикреплять файлы к сообщениям
Вы не можете скачивать файлы