Меч судьбы / Перевал Великого Будды / The Sword of Doom / Dai-bosatsu tôge (Кихачи Окамото / Kihachi Okamoto) [1965, Япония, боевик, драма, HDRip] 2xMVO + original Jap + Sub (2Xrus, eng)

Ответить на тему
 
Автор Сообщение

user ®

Стаж: 13 лет

Сообщений: 15071

Пост Пост: #1 от 23-Янв-2015 23:09

[Цитировать]

Меч судьбы / Перевал Великого Будды / The Sword of Doom / Dai-bosatsu tôge- -Страна: Япония
Жанр: боевик, драма
Год выпуска: 1965
Продолжительность: 02:00:29-Перевод: Профессиональный (многоголосый закадровый)
Перевод: Профессиональный (многоголосый закадровый)-Cубтитры: русские (2 вида), английские [отдельно]
Оригинальная аудиодорожка: японский
Режиссер: Кихачи Окамото / Kihachi Okamoto
В ролях: Тацуя Накадаи, Митиё Аратама, Юдзо Каяма, Йоко Наито, Тадао Накамару, Кэй Сато, Ко Нисимура, Икиро Накая, Куниэ Танака, Такамару Сасаки....
Описание: Риносуки Татсуи — человек, для которого убийство это наслаждение. Он получил от отца меч, который стал для него дорогой жизни. Меч принадлежит и узнается только членами семьи.
Его противник Тараносуки Шимада — изрытый оспой самурай, равен ему по силе и отваге, он внимательно исследует силы меча и внутренние силы его хозяина, прежде чем вступить в смертельный поединок…
Релиз от -
Сэмпл: http://multi-up.com/1028279
Качество видео: HDRip
Формат видео: AVI
Видео: MPEG-4 Visual at 2008 Кбит/сек; 720 x 304 (2.368) at 23.976 fps
Аудио: AC-3 at 192 Кбит/сек; 2 канала, 48,0 КГц [MVO]
Аудио: AC-3 at 192 Кбит/сек; 2 канала, 48,0 КГц [MVO]
Аудио: AC-3 at 192 Кбит/сек; 1 канал, 48,0 КГц [Jap]
Автор -
MediaInfo
Общее
Полное имя : D:\Фильмы\Азиатские\Меч судьбы\The Sword of Doom.1965.HDRip.XviD.2200MB. rip by [Assassin's Creed]\The Sword of Doom.1965.HDRip.XviD.2200MB. rip by [Assassin's Creed].avi
Формат : AVI
Формат/Информация : Audio Video Interleave
Профиль формата : OpenDML
Размер файла : 2,19 Гбайт
Продолжительность : 2 ч. 0 м.
Общий поток : 2608 Кбит/сек
Программа кодирования : VirtualDubMod 1.5.10.3 | www.virtualdub-fr.org || (build 2550/release)
Библиотека кодирования : VirtualDubMod build 2550/release
Видео
Идентификатор : 0
Формат : MPEG-4 Visual
Профиль формата : Advanced Simple@L5
Параметр BVOP формата : 1
Параметр QPel формата : Нет
Параметр GMC формата : Без точки перехода
Параметр матрицы формата : Default (MPEG)
Идентификатор кодека : XVID
Идентификатор кодека/Подсказка : XviD
Продолжительность : 2 ч. 0 м.
Битрейт : 2008 Кбит/сек
Ширина : 720 пикселей
Высота : 304 пикселя
Соотношение сторон : 2,35:1
Частота кадров : 23,976 кадра/сек
Цветовое пространство : YUV
Субдискретизация насыщенности : 4:2:0
Битовая глубина : 8 бит
Тип развёртки : Прогрессивная
Метод сжатия : С потерями
Бит/(Пиксели*Кадры) : 0.383
Размер потока : 1,69 Гбайт (77%)
Библиотека кодирования : XviD 1.2.1 (UTC 2008-12-04)
Аудио #1
Идентификатор : 1
Формат : AC-3
Формат/Информация : Audio Coding 3
Расширение режима : CM (complete main)
Параметр Endianness формата : Big
Идентификатор кодека : 2000
Продолжительность : 2 ч. 0 м.
Вид битрейта : Постоянный
Битрейт : 192 Кбит/сек
Каналы : 2 канала
Расположение каналов : Front: L R
Частота : 48,0 КГц
Битовая глубина : 16 бит
Метод сжатия : С потерями
Размер потока : 165 Мбайт (7%)
Выравнивание : Разделение по промежуткам
Продолжительность промежутка : 42 мс. (1,00 видеокадр)
Время предзагрузки промежутка : 500 мс.
Аудио #2
Идентификатор : 2
Формат : AC-3
Формат/Информация : Audio Coding 3
Расширение режима : CM (complete main)
Параметр Endianness формата : Big
Идентификатор кодека : 2000
Продолжительность : 2 ч. 0 м.
Вид битрейта : Постоянный
Битрейт : 192 Кбит/сек
Каналы : 2 канала
Расположение каналов : Front: L R
Частота : 48,0 КГц
Битовая глубина : 16 бит
Метод сжатия : С потерями
Размер потока : 165 Мбайт (7%)
Выравнивание : Разделение по промежуткам
Продолжительность промежутка : 42 мс. (1,00 видеокадр)
Время предзагрузки промежутка : 500 мс.
Аудио #3
Идентификатор : 3
Формат : AC-3
Формат/Информация : Audio Coding 3
Расширение режима : CM (complete main)
Параметр Endianness формата : Big
Идентификатор кодека : 2000
Продолжительность : 2 ч. 0 м.
Вид битрейта : Постоянный
Битрейт : 192 Кбит/сек
Каналы : 1 канал
Расположение каналов : Front: C
Частота : 48,0 КГц
Битовая глубина : 16 бит
Метод сжатия : С потерями
Размер потока : 165 Мбайт (7%)
Выравнивание : Разделение по промежуткам
Продолжительность промежутка : 42 мс. (1,00 видеокадр)
Время предзагрузки промежутка : 500 мс.
Общее
Полное имя : D:\Фильмы\Азиатские\Меч судьбы\The Sword of Doom.1965.HDRip.XviD.2200MB. rip by [Assassin's Creed]\The Sword of Doom.1965.HDRip.XviD.2200MB. rip by [Assassin's Creed].eng.srt
Формат : SubRip
Размер файла : 75,2 Кбайт
Текст
Формат : SubRip
Метод сжатия : Без потерь
Общее
Полное имя : D:\Фильмы\Азиатские\Меч судьбы\The Sword of Doom.1965.HDRip.XviD.2200MB. rip by [Assassin's Creed]\The Sword of Doom.1965.HDRip.XviD.2200MB. rip by [Assassin's Creed].rus.srt
Формат : SubRip
Размер файла : 101 Кбайт
Текст
Формат : SubRip
Метод сжатия : Без потерь
Общее
Полное имя : D:\Фильмы\Азиатские\Меч судьбы\The Sword of Doom.1965.HDRip.XviD.2200MB. rip by [Assassin's Creed]\The Sword of Doom.1965.HDRip.XviD.2200MB. rip by [Assassin's Creed].rus2.srt
Формат : SubRip
Размер файла : 101 Кбайт
Текст
Формат : SubRip
Метод сжатия : Без потерь
Скриншот c названием фильма Скриншоты
Скачать

Скачать торрент! Меч судьбы / Перевал Великого Будды / The Sword of Doom / Dai-bosatsu tôge (Кихачи Окамото / Kihachi Okamoto) [1965, Япония, боевик, драма, HDRip] 2xMVO + original Jap + Sub (2Xrus, eng)

Как скачивать? · Что такое торрент? · Рейтинг и ограничения

Сайт не распространяет и не хранит электронные версии произведений, а лишь предоставляет доступ к создаваемому пользователями каталогу ссылок на торрент-файлы, которые содержат только списки хеш-сумм

[Профиль] [ЛС]
Показать сообщения:    
Ответить на тему

Текущее время: Сегодня 21:28

Часовой пояс: GMT + 4



Вы не можете начинать темы
Вы не можете отвечать на сообщения
Вы не можете редактировать свои сообщения
Вы не можете удалять свои сообщения
Вы не можете голосовать в опросах
Вы не можете прикреплять файлы к сообщениям
Вы не можете скачивать файлы