Cлавные парни / Goodfellas (Мартин Скорсезе / Martin Scorsese) [1990, США, триллер, драма, криминал, BDRemux 1080p] 2x Dub + 2x MVO + 5x AVO + VO + DVO + 2x Ukr + Sub Rus, Eng + Original Eng

Ответить на тему
 
Автор Сообщение

user ®

Стаж: 7 лет 7 месяцев

Сообщений: 20008

Пост Пост: #1 от 23-Янв-2015 23:09

[Цитировать]

Cлавные парни / Goodfellas
Страна: США
Жанр: триллер, драма, криминал
Год выпуска: 1990
Продолжительность: 02:25:27
Перевод 01: Профессиональный (дублированный) R5
Перевод 02: Профессиональный (дублированный) Варус-видео
Перевод 03: Профессиональный (многоголосый закадровый) НТВ
Перевод 04: Профессиональный (многоголосый закадровый) ТНТ
Перевод 05: Авторский (одноголосый закадровый) Гаврилов Андрей
Перевод 06: Профессиональный (двухголосый закадровый) Пётр Гланц и Инна Королёва
Перевод 07: Авторский (одноголосый закадровый) Горчаков Василий
Перевод 08: Авторский (одноголосый закадровый) Живов Юрий
Перевод 09: Авторский (одноголосый закадровый) Михалев Алексей
Перевод 10: Авторский (одноголосый закадровый) Прямостанов Павел
Перевод 11: Одноголосый закадровый Чадов Михаил с ненормативной лексикой
Cубтитры: русские, английские
Оригинальная аудиодорожка: английский
Режиссер: Мартин Скорсезе / Martin Scorsese
В ролях: Роберт Де Ниро, Рэй Лиотта, Джо Пеши, Лоррейн Бракко, Пол Сорвино, Фрэнк Сиверо, Тони Дарроу, Майк Старр, Фрэнк Винсент, Чак Лоу
Описание: Генри Хилл начинающий гангстер, занимающийся грабежами вместе с Джими Конвеем и Томми Де Вито, которые с легкостью убивают любого, кто встает у них на пути восхождения к вершинам Мафии. Приходит время когда Генри, сам пострадавший от своих напарников, должен приложить руку к началу конца Джими и Томми
Сэмпл: http://sendfile.su/1076647
Тип релиза: BDRemux 1080p
Контейнер: MKV
Видео: VC-1 1920 x 1080 (16:9) 23,976 fps, 16202 kbps
Аудио 01: Russian / Dolby Digital Audio / 5.1 / 48 kHz / 384 kbps R5
Аудио 02: Russian / Dolby Digital Audio / 2.0 / 48 kHz / 224 kbps Варус-видео
Аудио 03: Russian / Dolby Digital Audio / 2.0 / 48 kHz / 192 kbps / DN -4dB НТВ
Аудио 04: Russian / Dolby Digital Audio / 2.0 / 48 kHz / 192 kbps / DN -4dB ТНТ
Аудио 05: Russian / Dolby Digital Audio / 5.1 / 48 kHz / 640 kbps / DN -4dB Гаврилов
Аудио 06: Russian / Dolby Digital Audio / 5.1 / 48 kHz / 640 kbps / DN -4dB Гланц и Королева
Аудио 07: Russian / Dolby Digital Audio / 5.1 / 48 kHz / 640 kbps / DN -4dB Горчаков
Аудио 08: Russian / Dolby Digital Audio / 5.1 / 48 kHz / 640 kbps / DN -4dB Живов
Аудио 09: Russian / Dolby Digital Audio / 5.1 / 48 kHz / 640 kbps / DN -4dB Михалёв
Аудио 10: Russian / Dolby Digital Audio / 2.0 / 48 kHz / 192 kbps Прямостанов
Аудио 11: Russian / Dolby Digital Audio / 5.1 / 48 kHz / 448 kbps Чадов
Аудио 12: Ukrainian / Dolby Digital Audio / 5.1 / 48 kHz / 448 kbps / DN -4dB 1+1
Аудио 13: Ukrainian / Dolby Digital Audio / 5.1 / 48 kHz / 448 kbps / DN -4dB Inter
Аудио 14: English / Dolby Digital Audio / 5.1 / 48 kHz / 640 kbps
MediaInfo
Общее
Уникальный идентификатор : 173014339970001425517343389357949961240 (0x8229598D84EB8F1790BFA66051D5C418)
Полное имя : D:\Goodfellas\Goodfellas.remux.mkv.mkv
Формат : Matroska
Версия формата : Version 2
Размер файла : 22,9 Гбайт
Продолжительность : 2 ч. 25 м.
Общий поток : 22,6 Мбит/сек
Название фильма : Remux.dp
Дата кодирования : UTC 2015-01-22 15:02:00
Программа кодирования : mkvmerge v5.6.0 ('Kenya Kane') built on May 27 2012 16:44:04
Библиотека кодирования : libebml v1.2.3 + libmatroska v1.3.0
Видео
Идентификатор : 1
Формат : VC-1
Профиль формата : Advanced@L3
Идентификатор кодека : V_MS/VFW/FOURCC / WVC1
Идентификатор кодека/Подсказка : Microsoft
Продолжительность : 2 ч. 25 м.
Битрейт : 15,8 Мбит/сек
Ширина : 1920 пикселей
Высота : 1080 пикселей
Соотношение сторон : 16:9
Режим частоты кадров : Постоянный
Частота кадров : 23,976 кадра/сек
Цветовое пространство : YUV
Субдискретизация насыщенности : 4:2:0
Битовая глубина : 8 бит
Тип развёртки : Прогрессивная
Метод сжатия : С потерями
Бит/(Пиксели*Кадры) : 0.317
Размер потока : 16,0 Гбайт (70%)
Default : Да
Forced : Нет
Аудио #1
Идентификатор : 2
Формат : AC-3
Формат/Информация : Audio Coding 3
Расширение режима : CM (complete main)
Параметр Endianness формата : Big
Режим смешивания : Header stripping
Идентификатор кодека : A_AC3
Продолжительность : 2 ч. 25 м.
Вид битрейта : Постоянный
Битрейт : 384 Кбит/сек
Каналы : 6 каналов
Расположение каналов : Front: L C R, Side: L R, LFE
Частота : 48,0 КГц
Битовая глубина : 16 бит
Метод сжатия : С потерями
Размер потока : 400 Мбайт (2%)
Заголовок : Rus
Язык : Russian
Default : Да
Forced : Нет
Аудио #2
Идентификатор : 3
Формат : AC-3
Формат/Информация : Audio Coding 3
Расширение режима : CM (complete main)
Параметр Endianness формата : Big
Режим смешивания : Header stripping
Идентификатор кодека : A_AC3
Продолжительность : 2 ч. 25 м.
Вид битрейта : Постоянный
Битрейт : 224 Кбит/сек
Каналы : 2 канала
Расположение каналов : Front: L R
Частота : 48,0 КГц
Битовая глубина : 16 бит
Метод сжатия : С потерями
Размер потока : 233 Мбайт (1%)
Заголовок : Rus
Язык : Russian
Default : Нет
Forced : Нет
Аудио #3
Идентификатор : 4
Формат : AC-3
Формат/Информация : Audio Coding 3
Расширение режима : CM (complete main)
Параметр Endianness формата : Big
Режим смешивания : Header stripping
Идентификатор кодека : A_AC3
Продолжительность : 2 ч. 25 м.
Вид битрейта : Постоянный
Битрейт : 192 Кбит/сек
Каналы : 2 канала
Расположение каналов : Front: L R
Частота : 48,0 КГц
Битовая глубина : 16 бит
Метод сжатия : С потерями
Размер потока : 200 Мбайт (1%)
Заголовок : Rus
Язык : Russian
Default : Нет
Forced : Нет
Аудио #4
Идентификатор : 5
Формат : AC-3
Формат/Информация : Audio Coding 3
Расширение режима : CM (complete main)
Параметр Endianness формата : Big
Режим смешивания : Header stripping
Идентификатор кодека : A_AC3
Продолжительность : 2 ч. 25 м.
Вид битрейта : Постоянный
Битрейт : 192 Кбит/сек
Каналы : 2 канала
Расположение каналов : Front: L R
Частота : 48,0 КГц
Битовая глубина : 16 бит
Метод сжатия : С потерями
Размер потока : 200 Мбайт (1%)
Заголовок : Rus
Язык : Russian
Default : Нет
Forced : Нет
Аудио #5
Идентификатор : 6
Формат : AC-3
Формат/Информация : Audio Coding 3
Расширение режима : CM (complete main)
Параметр Endianness формата : Big
Режим смешивания : Header stripping
Идентификатор кодека : A_AC3
Продолжительность : 2 ч. 25 м.
Вид битрейта : Постоянный
Битрейт : 640 Кбит/сек
Каналы : 6 каналов
Расположение каналов : Front: L C R, Side: L R, LFE
Частота : 48,0 КГц
Битовая глубина : 16 бит
Метод сжатия : С потерями
Размер потока : 666 Мбайт (3%)
Заголовок : Rus
Язык : Russian
Default : Нет
Forced : Нет
Аудио #6
Идентификатор : 7
Формат : AC-3
Формат/Информация : Audio Coding 3
Расширение режима : CM (complete main)
Параметр Endianness формата : Big
Режим смешивания : Header stripping
Идентификатор кодека : A_AC3
Продолжительность : 2 ч. 25 м.
Вид битрейта : Постоянный
Битрейт : 640 Кбит/сек
Каналы : 6 каналов
Расположение каналов : Front: L C R, Side: L R, LFE
Частота : 48,0 КГц
Битовая глубина : 16 бит
Метод сжатия : С потерями
Размер потока : 666 Мбайт (3%)
Заголовок : Rus
Язык : Russian
Default : Нет
Forced : Нет
Аудио #7
Идентификатор : 8
Формат : AC-3
Формат/Информация : Audio Coding 3
Расширение режима : CM (complete main)
Параметр Endianness формата : Big
Режим смешивания : Header stripping
Идентификатор кодека : A_AC3
Продолжительность : 2 ч. 25 м.
Вид битрейта : Постоянный
Битрейт : 640 Кбит/сек
Каналы : 6 каналов
Расположение каналов : Front: L C R, Side: L R, LFE
Частота : 48,0 КГц
Битовая глубина : 16 бит
Метод сжатия : С потерями
Размер потока : 666 Мбайт (3%)
Заголовок : Rus
Язык : Russian
Default : Нет
Forced : Нет
Аудио #8
Идентификатор : 9
Формат : AC-3
Формат/Информация : Audio Coding 3
Расширение режима : CM (complete main)
Параметр Endianness формата : Big
Режим смешивания : Header stripping
Идентификатор кодека : A_AC3
Продолжительность : 2 ч. 25 м.
Вид битрейта : Постоянный
Битрейт : 640 Кбит/сек
Каналы : 6 каналов
Расположение каналов : Front: L C R, Side: L R, LFE
Частота : 48,0 КГц
Битовая глубина : 16 бит
Метод сжатия : С потерями
Размер потока : 666 Мбайт (3%)
Заголовок : Rus
Язык : Russian
Default : Нет
Forced : Нет
Аудио #9
Идентификатор : 10
Формат : AC-3
Формат/Информация : Audio Coding 3
Расширение режима : CM (complete main)
Параметр Endianness формата : Big
Режим смешивания : Header stripping
Идентификатор кодека : A_AC3
Продолжительность : 2 ч. 25 м.
Вид битрейта : Постоянный
Битрейт : 640 Кбит/сек
Каналы : 6 каналов
Расположение каналов : Front: L C R, Side: L R, LFE
Частота : 48,0 КГц
Битовая глубина : 16 бит
Метод сжатия : С потерями
Размер потока : 666 Мбайт (3%)
Заголовок : Rus
Язык : Russian
Default : Нет
Forced : Нет
Аудио #10
Идентификатор : 11
Формат : AC-3
Формат/Информация : Audio Coding 3
Расширение режима : CM (complete main)
Параметр Endianness формата : Big
Режим смешивания : Header stripping
Идентификатор кодека : A_AC3
Продолжительность : 2 ч. 25 м.
Вид битрейта : Постоянный
Битрейт : 192 Кбит/сек
Каналы : 2 канала
Расположение каналов : Front: L R
Частота : 48,0 КГц
Битовая глубина : 16 бит
Метод сжатия : С потерями
Размер потока : 200 Мбайт (1%)
Заголовок : rus
Язык : Russian
Default : Нет
Forced : Нет
Аудио #11
Идентификатор : 12
Формат : AC-3
Формат/Информация : Audio Coding 3
Расширение режима : CM (complete main)
Параметр Endianness формата : Big
Режим смешивания : Header stripping
Идентификатор кодека : A_AC3
Продолжительность : 2 ч. 25 м.
Вид битрейта : Постоянный
Битрейт : 448 Кбит/сек
Каналы : 6 каналов
Расположение каналов : Front: L C R, Side: L R, LFE
Частота : 48,0 КГц
Битовая глубина : 16 бит
Метод сжатия : С потерями
Размер потока : 466 Мбайт (2%)
Заголовок : Rus
Язык : Russian
Default : Нет
Forced : Нет
Аудио #12
Идентификатор : 13
Формат : AC-3
Формат/Информация : Audio Coding 3
Расширение режима : CM (complete main)
Параметр Endianness формата : Big
Режим смешивания : Header stripping
Идентификатор кодека : A_AC3
Продолжительность : 2 ч. 25 м.
Вид битрейта : Постоянный
Битрейт : 448 Кбит/сек
Каналы : 6 каналов
Расположение каналов : Front: L C R, Side: L R, LFE
Частота : 48,0 КГц
Битовая глубина : 16 бит
Метод сжатия : С потерями
Размер потока : 466 Мбайт (2%)
Заголовок : ukr
Язык : Ukrainian
Default : Нет
Forced : Нет
Аудио #13
Идентификатор : 14
Формат : AC-3
Формат/Информация : Audio Coding 3
Расширение режима : CM (complete main)
Параметр Endianness формата : Big
Режим смешивания : Header stripping
Идентификатор кодека : A_AC3
Продолжительность : 2 ч. 25 м.
Вид битрейта : Постоянный
Битрейт : 448 Кбит/сек
Каналы : 6 каналов
Расположение каналов : Front: L C R, Side: L R, LFE
Частота : 48,0 КГц
Битовая глубина : 16 бит
Метод сжатия : С потерями
Размер потока : 466 Мбайт (2%)
Заголовок : ukr
Язык : Ukrainian
Default : Нет
Forced : Нет
Аудио #14
Идентификатор : 15
Формат : AC-3
Формат/Информация : Audio Coding 3
Расширение режима : CM (complete main)
Параметр Endianness формата : Big
Режим смешивания : Header stripping
Идентификатор кодека : A_AC3
Продолжительность : 2 ч. 25 м.
Вид битрейта : Постоянный
Битрейт : 640 Кбит/сек
Каналы : 6 каналов
Расположение каналов : Front: L C R, Side: L R, LFE
Частота : 48,0 КГц
Битовая глубина : 16 бит
Метод сжатия : С потерями
Размер потока : 666 Мбайт (3%)
Заголовок : Eng
Язык : English
Default : Нет
Forced : Нет
Текст #1
Идентификатор : 16
Формат : UTF-8
Идентификатор кодека : S_TEXT/UTF8
Идентификатор кодека/Информация : UTF-8 Plain Text
Заголовок : English
Язык : English
Default : Нет
Forced : Нет
Текст #2
Идентификатор : 17
Формат : UTF-8
Идентификатор кодека : S_TEXT/UTF8
Идентификатор кодека/Информация : UTF-8 Plain Text
Заголовок : English
Язык : English
Default : Нет
Forced : Нет
Текст #3
Идентификатор : 18
Формат : UTF-8
Идентификатор кодека : S_TEXT/UTF8
Идентификатор кодека/Информация : UTF-8 Plain Text
Заголовок : Rus
Язык : Russian
Default : Нет
Forced : Нет
Текст #4
Идентификатор : 19
Формат : UTF-8
Идентификатор кодека : S_TEXT/UTF8
Идентификатор кодека/Информация : UTF-8 Plain Text
Заголовок : Rus
Язык : Russian
Default : Нет
Forced : Нет
Текст #5
Идентификатор : 20
Формат : UTF-8
Идентификатор кодека : S_TEXT/UTF8
Идентификатор кодека/Информация : UTF-8 Plain Text
Заголовок : Rus
Язык : Russian
Default : Нет
Forced : Нет
Скриншоты
Скачать

Скачать торрент!

Как скачивать? · Что такое торрент? · Рейтинг и ограничения

Сайт не распространяет и не хранит электронные версии произведений, а лишь предоставляет доступ к создаваемому пользователями каталогу ссылок на торрент-файлы, которые содержат только списки хеш-сумм

[Профиль] [ЛС]
Показать сообщения:    
Ответить на тему

Текущее время: Сегодня 06:08

Часовой пояс: GMT + 4



Вы не можете начинать темы
Вы не можете отвечать на сообщения
Вы не можете редактировать свои сообщения
Вы не можете удалять свои сообщения
Вы не можете голосовать в опросах
Вы не можете прикреплять файлы к сообщениям
Вы не можете скачивать файлы