Души в лунном свете - 2 / Souls in the Moonlight / Daibosatsu Toge (Утида Тому / Uchida Tomu) [1958, Япония, исторический эпос, DVDRip] AVO (С. Кузнецов) + Sub Eng + Original Jap

Ответить на тему
 
Автор Сообщение

user ®

Стаж: 13 лет

Сообщений: 15071

Пост Пост: #1 от 23-Янв-2015 11:45

[Цитировать]

Души в лунном свете - 2 / Souls in the Moonlight / Daibosatsu Toge
Страна: Япония
Студия: Toei Company
Жанр: исторический эпос
Год выпуска: 1958
Продолжительность: 01:45:22
Перевод: Авторский (одноголосый закадровый) С. Кузнецов
Cубтитры: английские
Оригинальная аудиодорожка: японский
Режиссер: Утида Тому / Uchida Tomu
В ролях: Катаока Тиэдзо(Kataoka Chiezo), Накамура Кинноскэ(Nakamura Kinnosuke), Хасэгава Юмико(Hasegawa Yumiko), Урадзато Харуми(Urazato Harumi), Ока Сатоми(Oka Satomi), Хидака Сумико(Hidaka Sumiko), Ямагато Исао(Yamagata Isao), Кисии Акира(Kishii Akira)
Описание: Экранизация монументального произведения Кайдзан Накадзато, снятая признанным мастером японского кинематографа Тому Утидой еще до появления трилогии Кэндзи Мисуми "Перевал великого Будды" и Кихати Окамото "Меч судьбы". В этот раз роль самурая Цукуэ Рёноскэ, одержимого постижением сути меча и ради этого устилающего свой жизненный путь трупами всех, мешающих поставленной цели, исполнил именитый актер Тиэдзо Катаока, не раз успешно снимавшийся у Утиды. Если Райдзо Итикава у Мисуми выделялся отчужденной холодностью и фактурностью своего героя, а Тацуя Накадаи в фильме Окамото достоверно продемонстрировал мечущуюся натуру, доходящую до безумия, то Катаока весьма органично изображает постепенную трансформацию характера персонажа, умело перенося на экран внутреннюю концентрацию зла и жестокости. Кроме того, в этом фильме выделяется фигура главного противника Рёноскэ, невнятно прописанная у других режиссёров - самурая Уцуги Хёмы, роль которого сыграл молодой Кинноскэ Накамура.
Во втором фильм трилогии потерявший зрение Цукуэ Рёноскэ, продолжает свои скитания, встречая на пути князя Камио Сюдзэна. Последний, убедившись на собственном опыте в мастерстве странствующего самурая, решает использовать его в качестве убийцы в своих интересах.
II Сэмпл II IMDB II
Релиз группа:

Доп. информация:
За [url=http://***/forum/viewtopic.php?t=3502475]исходник[/url] спасибо dmit (DM)
[url=http://***/forum/viewtopic.php?t=4921109]1 часть[/url]
[url=http://***/forum/viewtopic.php?t=4921852]3 часть[/url]
Качество видео: DVDRip
Формат видео: AVI
Видео: Xvid 704x304 (2.32:1) 23.976fps Bit rate 2384Kbps b/p 0.465
Аудио 1: AC3 48.0 KHz 2ch. 192kbps rus avo
Аудио 2: AC3 48.0 KHz 2ch. 224kbps jap
Формат субтитров: softsub (SRT)
MediaInfo
Общее
Полное имя : E:\torrent\Daibosatsu.Toge.II.1958.DVDRip\Daibosatsu.Toge.II.1958.DVDRip.avi
Формат : AVI
Формат/Информация : Audio Video Interleave
Профиль формата : OpenDML
Размер файла : 2,07 Гбайт
Продолжительность : 1 ч. 45 м.
Общий поток : 2819 Кбит/сек
Программа кодирования : VirtualDubMod 1.5.10.3 (build 2550/release)
Библиотека кодирования : VirtualDubMod build 2550/release
Видео
Идентификатор : 0
Формат : MPEG-4 Visual
Профиль формата : Advanced Simple@L5
Параметр BVOP формата : 2
Параметр QPel формата : Нет
Параметр GMC формата : Без точки перехода
Параметр матрицы формата : Default (H.263)
Идентификатор кодека : XVID
Идентификатор кодека/Подсказка : XviD
Продолжительность : 1 ч. 45 м.
Битрейт : 2384 Кбит/сек
Ширина : 704 пикселя
Высота : 304 пикселя
Соотношение сторон : 2,35:1
Частота кадров : 23,976 кадра/сек
Цветовое пространство : YUV
Субдискретизация насыщенности : 4:2:0
Битовая глубина : 8 бит
Тип развёртки : Прогрессивная
Метод сжатия : С потерями
Бит/(Пиксели*Кадры) : 0.465
Размер потока : 1,76 Гбайт (85%)
Библиотека кодирования : XviD 1.2.1 (UTC 2008-12-04)
Аудио #1
Идентификатор : 1
Формат : AC-3
Формат/Информация : Audio Coding 3
Расширение режима : CM (complete main)
Параметр Endianness формата : Big
Идентификатор кодека : 2000
Продолжительность : 1 ч. 45 м.
Вид битрейта : Постоянный
Битрейт : 192 Кбит/сек
Каналы : 2 канала
Расположение каналов : Front: L R
Частота : 48,0 КГц
Битовая глубина : 16 бит
Метод сжатия : С потерями
Размер потока : 145 Мбайт (7%)
Выравнивание : Разделение по промежуткам
Продолжительность промежутка : 42 мс. (1,00 видеокадр)
Время предзагрузки промежутка : 500 мс.
Аудио #2
Идентификатор : 2
Формат : AC-3
Формат/Информация : Audio Coding 3
Расширение режима : CM (complete main)
Параметр Endianness формата : Big
Идентификатор кодека : 2000
Продолжительность : 1 ч. 45 м.
Вид битрейта : Постоянный
Битрейт : 224 Кбит/сек
Каналы : 2 канала
Расположение каналов : Front: L R
Частота : 48,0 КГц
Битовая глубина : 16 бит
Метод сжатия : С потерями
Размер потока : 169 Мбайт (8%)
Выравнивание : Разделение по промежуткам
Продолжительность промежутка : 42 мс. (1,00 видеокадр)
Время предзагрузки промежутка : 500 мс.
Скриншот c названием фильма Скриншоты
Скачать

Скачать торрент! Души в лунном свете - 2 / Souls in the Moonlight / Daibosatsu Toge (Утида Тому / Uchida Tomu) [1958, Япония, исторический эпос, DVDRip] AVO (С. Кузнецов) + Sub Eng + Original Jap

Как скачивать? · Что такое торрент? · Рейтинг и ограничения

Сайт не распространяет и не хранит электронные версии произведений, а лишь предоставляет доступ к создаваемому пользователями каталогу ссылок на торрент-файлы, которые содержат только списки хеш-сумм

[Профиль] [ЛС]
Показать сообщения:    
Ответить на тему

Текущее время: Сегодня 16:45

Часовой пояс: GMT + 4



Вы не можете начинать темы
Вы не можете отвечать на сообщения
Вы не можете редактировать свои сообщения
Вы не можете удалять свои сообщения
Вы не можете голосовать в опросах
Вы не можете прикреплять файлы к сообщениям
Вы не можете скачивать файлы