Царство небесное / Kingdom of Heaven (Ридли Скотт / Ridley Scott) [2005, США, Испания, боевик, драма, приключения, BDRip 720p] [Director\'s Cut] Dub feat MVO + MVO (Киномания) + 3x AVO (Гаврилов, Живов, Королев) + Original Eng + sub (Rus, Eng)

Ответить на тему
 
Автор Сообщение

user ®

Стаж: 7 лет 7 месяцев

Сообщений: 20008

Пост Пост: #1 от 23-Янв-2015 05:36

[Цитировать]

Царство небесное / Kingdom of Heaven [Director's Cut]- Год выпуска: 2005
Страна: США, Испания
Жанр: боевик, драма, приключения
Продолжительность: 03:09:33
Перевод: Профессиональный (многоголосый, закадровый) Киномания
+ Авторский одноголосый В.Королев
+ Авторский одноголосый А.Гаврилов
+ Авторский одноголосый Ю.Живов
+ Профессиональный (полное дублирование) со вставками перевода Киномании на Director`s - эпизоды
Оригинальная звуковая дорожка: English
Cубтитры: Russian (Sawyer), Russian (Киномания), English, English (SDH)-Режиссер: Ридли Скотт / Ridley Scott
В ролях: Орландо Блум, Ева Грин, Мартон Чокаш, Дэвид Тьюлис, Гасан Масуд, Лиам Нисон, Джереми Айронс, Эдвард Нортон, Брендан Глисон, Александр Сиддиг
О фильме: Юный оружейник Бэлиан вынужден бежать со своей родины. Он присоединяется к отряду крестоносцев, которым руководит его отец. Но, в одной из битв, отец получает тяжелую рану и перед смертью присваивает своему сыну сан рыцаря, и тот клянется в верности королю Иерусалима.-SbR!
Релиз:
Формат: MKV
Видео: 1280x546 at 23.976 fps, x264@L4.1, crf, ~7326 kbps avg
Аудио #01: Russian: 48 kHz, DTS, 3/2 (L,C,R,l,r) + LFE ch, ~1509 kbps avg |Многоголосый закадровый, Киномания|
Аудио #02: Russian: 48 kHz, DTS, 3/2 (L,C,R,l,r) + LFE ch, ~1509 kbps avg |Одноголосый закадровый, В. Королёв|
Аудио #03: Russian: 48 kHz, DTS, 3/2 (L,C,R,l,r) + LFE ch, ~1509 kbps avg |Одноголосый закадровый, А. Гаврилов|
Аудио #04: Russian: 48 kHz, AC3, 2/0 (L,R) ch, ~192 kbps avg |Одноголосый закадровый, Ю. Живов|
Аудио #05: Russian: 48 kHz, AC3, 3/2 (L,C,R,l,r) + LFE ch, ~448 kbps avg |Дубляж+MVO|
Аудио #06: English: 48 kHz, DTS, 3/2 (L,C,R,l,r) + LFE ch, ~1509 kbps avg
Семпл-Source vs Encode
-
mInfo
Формат : Matroska
Версия формата : Version 4 / Version 2
Размер файла : 18,5 Гбайт
Продолжительность : 3 ч. 9 м.
Общий поток : 14,0 Мбит/сек
Название фильма : Kingdom of Heaven (2005) - Release for HDCLUB by SbR
Дата кодирования : UTC 2014-06-18 09:47:48
Программа кодирования : mkvmerge v6.9.1 ('Blue Panther') 64bit built on Apr 18 2014 18:23:38
Библиотека кодирования : libebml v1.3.0 + libmatroska v1.4.1
Attachment : Yes
Видео
Идентификатор : 1
Формат : AVC
Формат/Информация : Advanced Video Codec
Профиль формата : High@L4.1
Параметр CABAC формата : Да
Параметр ReFrames формата : 11 кадров
Идентификатор кодека : V_MPEG4/ISO/AVC
Продолжительность : 3 ч. 9 м.
Битрейт : 7053 Кбит/сек
Ширина : 1280 пикселей
Высота : 546 пикселей
Соотношение сторон : 2,35:1
Соотношение сторон в оригинале : 2,35:1
Режим частоты кадров : Постоянный
Частота кадров : 23,976 кадра/сек
Цветовое пространство : YUV
Субдискретизация насыщенности : 4:2:0
Битовая глубина : 8 бит
Тип развёртки : Прогрессивная
Бит/(Пиксели*Кадры) : 0.421
Размер потока : 9,34 Гбайт (50%)
Заголовок : Release for HDCLUB
Библиотека кодирования : x264 core 142 r2431+42 c69a006 tMod [8-bit@4:2:0 X86_64]
Настройки программы : cabac=1 / ref=11 / deblock=1:-2:-2 / analyse=0x3:0x133 / me=umh / subme=11 / psy=1 / fade_compensate=0.00 / psy_rd=1.00:0.00 / mixed_ref=1 / me_range=32 / chroma_me=1 / trellis=2 / 8x8dct=1 / cqm=0 / deadzone=21,11 / fast_pskip=1 / chroma_qp_offset=-2 / threads=12 / lookahead_threads=3 / sliced_threads=0 / nr=0 / decimate=1 / interlaced=0 / bluray_compat=0 / constrained_intra=0 / fgo=0 / bframes=11 / b_pyramid=2 / b_adapt=2 / b_bias=0 / direct=1 / weightb=1 / open_gop=0 / weightp=2 / keyint=250 / keyint_min=23 / scenecut=40 / intra_refresh=0 / rc_lookahead=60 / rc=crf / mbtree=0 / crf=16.5000 / qcomp=0.70 / qpmin=0:0:0 / qpmax=69:69:69 / qpstep=4 / vbv_maxrate=62500 / vbv_bufsize=78125 / crf_max=0.0 / nal_hrd=none / filler=0 / ip_ratio=1.40 / pb_ratio=1.30 / aq=4:0.80 / aq-sensitivity=11.00 / aq-factor=1.00:1.00:1.00 / aq2=1:0.60 / aq2-sensitivity=9.00 / aq2-factor=1.00:1.00:1.00 / aq3=1:[0.60:0.60]:[0.60:0.60]:[0.60:0.60]:[0.60:0.60] / aq3-sensitivity=10.00 / aq3-factor=[1.00:1.00]:[1.00:1.00]:[1.00:1.00] / aq3-boundary=192:64:24
Язык : English
Default : Да
Forced : Нет
Основные цвета : BT.709
Характеристики трансфера : BT.709
Коэффициенты матрицы : BT.709
Аудио #1
Идентификатор : 2
Формат : DTS
Формат/Информация : Digital Theater Systems
Режим : 16
Параметр Endianness формата : Big
Идентификатор кодека : A_DTS
Продолжительность : 3 ч. 9 м.
Вид битрейта : Постоянный
Битрейт : 1509 Кбит/сек
Каналы : 6 каналов
Расположение каналов : Front: L C R, Side: L R, LFE
Частота : 48,0 КГц
Битовая глубина : 24 бит
Метод сжатия : С потерями
Размер потока : 2,00 Гбайт (11%)
Заголовок : MVO, Киномания
Язык : Russian
Default : Да
Forced : Нет
Аудио #2
Идентификатор : 3
Формат : DTS
Формат/Информация : Digital Theater Systems
Режим : 16
Параметр Endianness формата : Big
Идентификатор кодека : A_DTS
Продолжительность : 3 ч. 9 м.
Вид битрейта : Постоянный
Битрейт : 1509 Кбит/сек
Каналы : 6 каналов
Расположение каналов : Front: L C R, Side: L R, LFE
Частота : 48,0 КГц
Битовая глубина : 24 бит
Метод сжатия : С потерями
Размер потока : 2,00 Гбайт (11%)
Заголовок : VO, Королёв
Язык : Russian
Default : Нет
Forced : Нет
Аудио #3
Идентификатор : 4
Формат : DTS
Формат/Информация : Digital Theater Systems
Режим : 16
Параметр Endianness формата : Big
Идентификатор кодека : A_DTS
Продолжительность : 3 ч. 9 м.
Вид битрейта : Постоянный
Битрейт : 1509 Кбит/сек
Каналы : 6 каналов
Расположение каналов : Front: L C R, Side: L R, LFE
Частота : 48,0 КГц
Битовая глубина : 24 бит
Метод сжатия : С потерями
Размер потока : 2,00 Гбайт (11%)
Заголовок : VO, Гаврилов
Язык : Russian
Default : Нет
Forced : Нет
Аудио #4
Идентификатор : 5
Формат : AC-3
Формат/Информация : Audio Coding 3
Расширение режима : CM (complete main)
Параметр Endianness формата : Big
Идентификатор кодека : A_AC3
Продолжительность : 3 ч. 9 м.
Вид битрейта : Постоянный
Битрейт : 192 Кбит/сек
Каналы : 2 канала
Расположение каналов : Front: L R
Частота : 48,0 КГц
Битовая глубина : 16 бит
Метод сжатия : С потерями
Размер потока : 260 Мбайт (1%)
Заголовок : VO, Живов
Язык : Russian
Default : Нет
Forced : Нет
Аудио #5
Идентификатор : 6
Формат : AC-3
Формат/Информация : Audio Coding 3
Расширение режима : CM (complete main)
Параметр Endianness формата : Big
Идентификатор кодека : A_AC3
Продолжительность : 3 ч. 9 м.
Вид битрейта : Постоянный
Битрейт : 448 Кбит/сек
Каналы : 6 каналов
Расположение каналов : Front: L C R, Side: L R, LFE
Частота : 48,0 КГц
Битовая глубина : 16 бит
Метод сжатия : С потерями
Размер потока : 607 Мбайт (3%)
Заголовок : Dub+MVO
Язык : Russian
Default : Нет
Forced : Нет
Аудио #6
Идентификатор : 7
Формат : DTS
Формат/Информация : Digital Theater Systems
Режим : 16
Параметр Endianness формата : Big
Идентификатор кодека : A_DTS
Продолжительность : 3 ч. 9 м.
Вид битрейта : Постоянный
Битрейт : 1509 Кбит/сек
Каналы : 6 каналов
Расположение каналов : Front: L C R, Side: L R, LFE
Частота : 48,0 КГц
Битовая глубина : 24 бит
Метод сжатия : С потерями
Размер потока : 2,00 Гбайт (11%)
Язык : English
Default : Нет
Forced : Нет
Текст #1
Идентификатор : 8
Формат : UTF-8
Идентификатор кодека : S_TEXT/UTF8
Идентификатор кодека/Информация : UTF-8 Plain Text
Заголовок : Sawyer
Язык : Russian
Default : Нет
Forced : Нет
Текст #2
Идентификатор : 9
Формат : UTF-8
Идентификатор кодека : S_TEXT/UTF8
Идентификатор кодека/Информация : UTF-8 Plain Text
Заголовок : Киномания
Язык : Russian
Default : Нет
Forced : Нет
Текст #3
Идентификатор : 10
Формат : UTF-8
Идентификатор кодека : S_TEXT/UTF8
Идентификатор кодека/Информация : UTF-8 Plain Text
Язык : English
Default : Нет
Forced : Нет
Текст #4
Идентификатор : 11
Формат : UTF-8
Идентификатор кодека : S_TEXT/UTF8
Идентификатор кодека/Информация : UTF-8 Plain Text
Заголовок : SDH
Язык : English
Default : Нет
Forced : Нет
Меню
00:00:00.000 : en:Crusaders
00:04:30.478 : en:Without an Heir
00:07:23.276 : en:Sin
00:09:22.353 : en:Old Memories
00:11:37.571 : en:The Baron's Son
00:14:37.835 : en:In Hell
00:18:15.135 : en:To Erase My Sins
00:20:38.070 : en:The Guard of the Hawk
00:22:03.280 : en:Whoever Dies Here Today
00:24:18.540 : en:The Path to Heaven
00:30:44.509 : en:A Better World
00:32:36.621 : en:Remember That Name
00:34:52.507 : en:The Knight's Oath
00:36:34.150 : en:Perilous Journey
00:39:15.519 : en:The Saracen's Challenge
00:41:58.349 : en:Jerusalem
00:45:55.043 : en:The New Baron
00:49:07.235 : en:Sibylla
00:51:36.885 : en:The Marshal of Jerusalem
00:54:18.129 : en:His Father's Son
00:56:36.309 : en:At the King's Table
00:58:36.054 : en:The Leper King
01:01:15.546 : en:Ibelin
01:05:47.318 : en:Guests of the House
01:10:11.582 : en:There Is Only Light
01:16:09.940 : en:God Wills It
01:18:43.176 : en:Tokens
01:20:08.887 : en:Blasphemy
01:21:28.800 : en:Defenders of Kerak
01:24:34.360 : en:The Friendly Enemy
01:29:34.202 : en:Jerusalem Has Come
01:30:48.609 : en:The Kiss of Peace
01:34:07.266 : en:Entr'acte
01:37:13.244 : en:I Quake for Islam
01:39:36.929 : en:Power
01:42:48.704 : en:An Understanding
01:45:14.307 : en:Conscience or Nothing
01:50:21.698 : en:The Final Dream
01:54:51.801 : en:Long Live the King
01:56:28.356 : en:The Reckoning
01:58:05.787 : en:A Mother's Pain
02:02:01.272 : en:Templars' Attack
02:04:07.148 : en:Queen of Jerusalem
02:04:57.156 : en:Beloved Sister
02:07:43.030 : en:He Is Waiting
02:11:44.313 : en:The Road to Hattin
02:13:25.914 : en:A King's Example
02:16:15.834 : en:Four Days
02:18:08.655 : en:To Defend Jerusalem
02:21:55.757 : en:Rise a Knight
02:24:17.190 : en:Siege
02:28:54.133 : en:Retaliation
02:34:58.080 : en:The Third Day
02:37:20.848 : en:God Will Understand
02:39:19.007 : en:The Door Into Jerusalem
02:41:27.677 : en:Final Stand
02:45:06.813 : en:Nothing and Everything
02:50:52.575 : en:The Perfect Knight
02:53:08.252 : en:Leaving Jerusalem
02:56:02.551 : en:A Queen Never Walks
02:57:19.503 : en:I Am the Blacksmith
03:00:35.533 : en:Epilogue/End Credits

-
Цитата:
* Дорожка Андрея Гаврилова изготовлена Panas.
-
Скачать

Скачать торрент!

Как скачивать? · Что такое торрент? · Рейтинг и ограничения

Сайт не распространяет и не хранит электронные версии произведений, а лишь предоставляет доступ к создаваемому пользователями каталогу ссылок на торрент-файлы, которые содержат только списки хеш-сумм

[Профиль] [ЛС]
Показать сообщения:    
Ответить на тему

Текущее время: Сегодня 07:52

Часовой пояс: GMT + 4



Вы не можете начинать темы
Вы не можете отвечать на сообщения
Вы не можете редактировать свои сообщения
Вы не можете удалять свои сообщения
Вы не можете голосовать в опросах
Вы не можете прикреплять файлы к сообщениям
Вы не можете скачивать файлы