Роман с камнем / Romancing the Stone (Роберт Земекис / Robert Zemeckis) [1984, Мексика, США, Боевик, мелодрама, комедия, приключения, BDRip 720p] Dub + 4x MVO + DVO + 4x AVO + Ukr + Sub Rus, Ukr, Eng + Original Eng

Ответить на тему
 
Автор Сообщение

user ®

Стаж: 7 лет 7 месяцев

Сообщений: 20008

Пост Пост: #1 от 23-Янв-2015 05:36

[Цитировать]

Роман с камнем / Romancing the Stone
«She's a girl from the big city. He's a reckless soldier of fortune. For a fabulous treasure, they share an adventure no one could imagine... or survive»

Год выпуска: 1984
Страна: Мексика США
Студия: Twentieth Century Fox Film Corporation, El Corazon Producciones S.A., Nina Saxon Film Design
Жанр: Боевик, мелодрама, комедия, приключения
Продолжительность: 01:45:46
Перевод 1: Профессиональный (дублированный) - Советский дубляж
Перевод 2: Профессиональный (двухголосый закадровый) - Позитив-Мультимедиа
Перевод 3: Профессиональный (многоголосый закадровый) - Киномания
Перевод 4: Профессиональный (многоголосый закадровый) - Премьер Видео Фильм
Перевод 5: Профессиональный (многоголосый закадровый) - Лазер Видео
Перевод 6: Авторский (одноголосый закадровый) - Горчаков
Перевод 7: Авторский (одноголосый закадровый) - Гаврилов
Перевод 8: Авторский (одноголосый закадровый) - Володарский
Перевод 9: Авторский (одноголосый закадровый) - Мишин
Перевод 10: Профессиональный (многоголосый закадровый) - R5
Субтитры: русские, украинские, английские
Оригинальная аудиодорожка: английский
Режиссер: Роберт Земекис / Robert Zemeckis
В ролях: Майкл Дуглас, Кэтлин Тернер, Дэнни ДеВито, Зак Норман, Альфонсо Арау, Мануэль Ойеда, Холлэнд Тейлор, Мэри Эллен Трэйнор, Ив Смит
Описание: Джоан Уайлдер, автор популярных женских романов, находит в своем почтовом ящике пакет, присланный из Колумбии ее сестрой. Телефонный звонок подтверждает самые страшные опасения — сестра похищена, и похитители требуют вернуть пакет.
Забыв обо всем на свете, Джоан летит на помощь сестре и теряется в первые часы после прилета. Ее пытаются убить, и только вмешательство Джека Колтона, американского наемника, спасет девушку от гибели.
Вместе их ждут экстремальные приключения в джунглях, поиск сокровищ и, конечно, романтическая любовная история.
Доп. информация:

Качество: BDRip 720p
Формат: MKV
Видео кодек: MPEG4 AVC
Аудио кодек: DTS, AC3
Видео: 1280x540, 16:9, 23.976 fps, x264@L4.1, ~6762 Kbps
Аудио №1: Русский Dolby Digital Audio 2.0, 48 kHz, 16 bit, ~192 kbps – профессиональный (дублированный) |Советский дубляж|
Аудио №2: Русский Dolby Digital Audio 2.0, 48 kHz, 16 bit, ~192 kbps – профессиональный (двухголосый закадровый) |Позитив-Мультимедиа|
Аудио №3: Русский Dolby Digital Audio 5.1, 48 kHz, 24 bit, ~448 kbps – профессиональный (многоголосый закадровый) |Киномания|
Аудио №4: Русский Dolby Digital Audio 2.0, 48 kHz, 16 bit, ~192 kbps – профессиональный (многоголосый закадровый) |Премьер Видео Фильм|
Аудио №5: Русский Dolby Digital Audio 2.0, 48 kHz, 16 bit, ~192 kbps – профессиональный (многоголосый закадровый) |Лазер Видео|
Аудио №6: Русский DTS Audio 5.1, 48 kHz, 24 bit, ~768 kbps – авторский (одноголосый закадровый) |Василий Горчаков|
Аудио №7: Русский DTS Audio 5.1, 48 kHz, 24 bit, ~768 kbps – авторский (одноголосый закадровый) |Андрей Гаврилов|
Аудио №8: Русский Dolby Digital Audio 2.0, 48 kHz, 16 bit, ~192 kbps – авторский (одноголосый закадровый) |Леонид Володарский|
Аудио №9: Русский Dolby Digital Audio 2.0, 48 kHz, 16 bit, ~192 kbps – авторский (одноголосый закадровый) |Алексей Мишин|
Аудио №10: Русский Dolby Digital Audio 5.1, 48 kHz, 16 bit, ~448 kbps – профессиональный (многоголосый закадровый) |R5|
Аудио №11: Украинский Dolby Digital Audio 5.1, 48 kHz, ~448 kbps – профессиональный (двухголосый закадровый) |1+1|
Аудио №12: Украинский Dolby Digital Audio 5.1, 48 kHz, ~448 kbps – профессиональный (двухголосый закадровый) |Новый канал|
Аудио №13: Английский Dolby Digital Audio 5.1, 48 kHz, 16 bit, ~640 kbps
Субтитры: Русские, украинские, английские
-
Знаете ли вы, что...
  • Американскую писательницу, написавшую одноимённую книгу по сценарию фильма зовут так же как главную героиню фильма — Джоан Уайлдер. Вероятнее всего эта женщина и явилась прототипом главной героини. Уайлдер затем написала и роман «Жемчужина Нила» по одноимённому фильму, явившемуся сиквелом «Романа с камнем».
  • Водное такси Джоан Уайлдер называется «Орка», так назвал свою лодку Куинт в фильме «Челюсти» (1975).
  • Карта сокровищ для фильма была составлена известным создателем пазлов Доктором Криптоном.
  • Название фильма позаимствовано из профессионального жаргона ювелиров, в котором эти слова обозначают превращение драгоценного камня в ювелирное изделие.
  • Сообщения об участившихся похищениях людей в Колумбии заставили создателей фильма перенести съемки в Мексику.
  • До того, как Майкл Дуглас согласился сыграть Джейка Колтона, от этой роли отказались Сильвестр Сталлоне и Кристофер Рив.
  • Финальный эпизод, где белоснежная яхта скользит среди урбанистического пейзажа Нью-Йорка, снят на 42-й улице.
    ...из книги «3500 кинорецензий»
Приключенческая комедия-фантазия
Ныне может показаться даже странным, что у продюсера и актёра Майкла Дагласа были сомнения относительно кандидатуры Кэтлин Тёрнер на главную женскую роль в этом фильме. Пробы, проведённые в Нью-Йорке, где Тёрнер играла в театре, оказались неудачными. Лишь на повторных съёмках в Лос-Анджелесе актриса сумела убедить других, а прежде всего, убедилась сама, что сможет сыграть робкую и скромную писательницу Джоан Уайлдер, которая сочиняет в тиши городской квартиры свои невероятные, полные приключений романы и как бы перевоплощается в собственную героиню-авантюристку, отправившись в Колумбию ради вызволения своей сестры из плена. «Роман с камнем» (вообще-то на жаргоне ювелиров romancing the stone — это «украшать камень») впервые доказал, что стихия Кэтлин Тёрнер — мир, где перемешаны фантазия и реальность.
Двойная жизнь романистки даётся в ироническом столкновении идеализированных представлений застенчивой молодой женщины и её сногсшибательных эскапад в грубой действительности, если таковой можно считать всё равно условно представленную жизнь в Латинской Америке. Приём, в принципе, известен и использовался не раз, хотя бы в «Великолепном» с Жан-Полем Бельмондо. А Тёрнер в качестве сочинительницы по фамилии Уайлдер (между прочим, имеет происхождение от слова wild, то есть дикая, необузданная и пр.) легко меняет маску добропорядочной девицы, которая воспитана в англосаксонских традициях, на лик неукротимой амазонки, лихо слоняющейся по джунглям. Она ловко выкручивается из рук гангстеров колумбийской наркомафии, а в финале уже готова принять личину «девушки-мечты», достающейся в награду благородному герою Джеку Колтону, который помогал Джоан, ищущей приключений на свою голову, совершать то ли выдуманные, то ли просто пригрезившиеся подвиги.
И этот типично голливудский по содержанию хэппи-энд также проникнут иронией, оставляя двойственное впечатление, что всё поведанное могло быть сюжетом внутри сюжета, очередным романом, который вышел из-под пера обитательницы Нью-Йорка, никогда его не покидавшей. А вот в быстро последовавшем продолжении «Жемчужина Нила», которое было снято на волне большого успеха «Романа с камнем», данный мотив уже напрочь отсутствует. Анекдот, повторенный буквально и словно взаправду, потерял смысл, да и актёры работают вхолостую.
Информация
  • Рип от SbR
  • Сохранены оригинальные чаптеры как на Blu-ray.
  • Дорожки Андрея Гаврилова и Василия Горчакова собраны с чистых голосов. Голос Гаврилова из личного архива автора (не тот хлам, что гуляет по сети с шумами).
  • В советском дубляже на места с пропуском перевода сделаны вставки.
  • Форсированные титры на колумбийскую речь и надписи.
    Сэмпл
Скриншоты Сравнение скриншотов
Сравнение с [url=http://***/forum/viewtopic.php?t=1269668]этой[/url] раздачейNew | Old







MediaInfo
General
Unique ID : 215242559159534716976970615775397350407 (0xA1EE3580F889398FBEC02A283CB30C07)
Complete name : Romancing the Stone [Роман с камнем].mkv
Format : Matroska
Format version : Version 4 / Version 2
File size : 9.88 GiB
Duration : 1h 45mn
Overall bit rate : 13.4 Mbps
Encoded date : UTC 2015-01-17 15:02:21
Writing application : mkvmerge v6.8.0 ('Theme for Great Cities') 32bit built on Mar 2 2014 21:27:07
Writing library : libebml v1.3.0 + libmatroska v1.4.1
Attachements : cover.jpg
Video
ID : 1
Format : AVC
Format/Info : Advanced Video Codec
Format profile : High@L4.1
Format settings, CABAC : Yes
Format settings, ReFrames : 12 frames
Codec ID : V_MPEG4/ISO/AVC
Duration : 1h 45mn
Bit rate : 6 504 Kbps
Width : 1 280 pixels
Height : 540 pixels
Display aspect ratio : 2.40:1
Frame rate mode : Constant
Frame rate : 23.976 fps
Color space : YUV
Chroma subsampling : 4:2:0
Bit depth : 8 bits
Scan type : Progressive
Bits/(Pixel*Frame) : 0.392
Stream size : 4.81 GiB (49%)
Writing library : x264 core 144 r2525kMod 40bb568
Encoding settings : cabac=1 / ref=12 / deblock=1:-3:-3 / analyse=0x3:0x133 / me=tesa / subme=10 / psy=1 / fade_compensate=0.00 / psy_rd=1.00:0.05 / mixed_ref=1 / me_range=24 / chroma_me=1 / trellis=2 / 8x8dct=1 / cqm=0 / deadzone=21,11 / fast_pskip=0 / chroma_qp_offset=-3 / threads=6 / lookahead_threads=1 / sliced_threads=0 / nr=0 / decimate=1 / interlaced=0 / bluray_compat=0 / constrained_intra=0 / fgo=0 / bframes=12 / b_pyramid=2 / b_adapt=2 / b_bias=0 / direct=3 / weightb=1 / open_gop=0 / weightp=2 / keyint=250 / keyint_min=23 / scenecut=40 / intra_refresh=0 / rc_lookahead=60 / rc=crf / mbtree=0 / crf=17.5000 / qcomp=0.67 / qpmin=0 / qpmax=69 / qpstep=4 / vbv_maxrate=62500 / vbv_bufsize=78125 / crf_max=0.0 / nal_hrd=none / filler=0 / ip_ratio=1.30 / pb_ratio=1.20 / aq=1:0.80
Language : English
Default : Yes
Forced : No
Matrix coefficients : BT.709
Color range : Limited
Audio #1
ID : 2
Format : AC-3
Format/Info : Audio Coding 3
Mode extension : CM (complete main)
Format settings, Endianness : Big
Codec ID : A_AC3
Duration : 1h 45mn
Bit rate mode : Constant
Bit rate : 192 Kbps
Channel(s) : 2 channels
Channel positions : Front: L R
Sampling rate : 48.0 KHz
Bit depth : 16 bits
Compression mode : Lossy
Stream size : 145 MiB (1%)
Title : Советский дубляж
Language : Russian
Default : Yes
Forced : No
Audio #2
ID : 3
Format : AC-3
Format/Info : Audio Coding 3
Mode extension : CM (complete main)
Format settings, Endianness : Big
Codec ID : A_AC3
Duration : 1h 45mn
Bit rate mode : Constant
Bit rate : 192 Kbps
Channel(s) : 2 channels
Channel positions : Front: L R
Sampling rate : 48.0 KHz
Bit depth : 16 bits
Compression mode : Lossy
Stream size : 145 MiB (1%)
Title : Двухголосый закадровый, Позитив-Мультимедиа
Language : Russian
Default : No
Forced : No
Audio #3
ID : 4
Format : AC-3
Format/Info : Audio Coding 3
Mode extension : CM (complete main)
Format settings, Endianness : Big
Codec ID : A_AC3
Duration : 1h 45mn
Bit rate mode : Constant
Bit rate : 448 Kbps
Channel(s) : 6 channels
Channel positions : Front: L C R, Side: L R, LFE
Sampling rate : 48.0 KHz
Bit depth : 16 bits
Compression mode : Lossy
Stream size : 339 MiB (3%)
Title : Многоголосый закадровый, Киномания
Language : Russian
Default : No
Forced : No
Audio #4
ID : 5
Format : AC-3
Format/Info : Audio Coding 3
Mode extension : CM (complete main)
Format settings, Endianness : Big
Codec ID : A_AC3
Duration : 1h 45mn
Bit rate mode : Constant
Bit rate : 192 Kbps
Channel(s) : 2 channels
Channel positions : Front: L R
Sampling rate : 48.0 KHz
Bit depth : 16 bits
Compression mode : Lossy
Stream size : 145 MiB (1%)
Title : Многоголосый закадровый, Премьер Видео Фильм
Language : Russian
Default : No
Forced : No
Audio #5
ID : 6
Format : AC-3
Format/Info : Audio Coding 3
Mode extension : CM (complete main)
Format settings, Endianness : Big
Codec ID : A_AC3
Duration : 1h 45mn
Bit rate mode : Constant
Bit rate : 192 Kbps
Channel(s) : 2 channels
Channel positions : Front: L R
Sampling rate : 48.0 KHz
Bit depth : 16 bits
Compression mode : Lossy
Stream size : 145 MiB (1%)
Title : Многоголосый закадровый, Лазер Видео
Language : Russian
Default : No
Forced : No
Audio #6
ID : 7
Format : DTS
Format/Info : Digital Theater Systems
Mode : 16
Format settings, Endianness : Big
Codec ID : A_DTS
Duration : 1h 45mn
Bit rate mode : Constant
Bit rate : 1 510 Kbps
Channel(s) : 6 channels
Channel positions : Front: L C R, Side: L R, LFE
Sampling rate : 48.0 KHz
Bit depth : 24 bits
Compression mode : Lossy
Stream size : 1.12 GiB (11%)
Title : Одноголосый закадровый, А.Гаврилов
Language : Russian
Default : No
Forced : No
Audio #7
ID : 8
Format : DTS
Format/Info : Digital Theater Systems
Mode : 16
Format settings, Endianness : Big
Codec ID : A_DTS
Duration : 1h 45mn
Bit rate mode : Constant
Bit rate : 1 510 Kbps
Channel(s) : 6 channels
Channel positions : Front: L C R, Side: L R, LFE
Sampling rate : 48.0 KHz
Bit depth : 24 bits
Compression mode : Lossy
Stream size : 1.12 GiB (11%)
Title : Одноголосый закадровый, В.Горчаков
Language : Russian
Default : No
Forced : No
Audio #8
ID : 9
Format : AC-3
Format/Info : Audio Coding 3
Mode extension : CM (complete main)
Format settings, Endianness : Big
Codec ID : A_AC3
Duration : 1h 45mn
Bit rate mode : Constant
Bit rate : 192 Kbps
Channel(s) : 2 channels
Channel positions : Front: L R
Sampling rate : 48.0 KHz
Bit depth : 16 bits
Compression mode : Lossy
Stream size : 145 MiB (1%)
Title : Одноголосый закадровый, Л.Володарский
Language : Russian
Default : No
Forced : No
Audio #9
ID : 10
Format : AC-3
Format/Info : Audio Coding 3
Mode extension : CM (complete main)
Format settings, Endianness : Big
Codec ID : A_AC3
Duration : 1h 45mn
Bit rate mode : Constant
Bit rate : 192 Kbps
Channel(s) : 2 channels
Channel positions : Front: L R
Sampling rate : 48.0 KHz
Bit depth : 16 bits
Compression mode : Lossy
Stream size : 145 MiB (1%)
Title : Одноголосый закадровый, А.Миши
Language : Russian
Default : No
Forced : No
Audio #10
ID : 11
Format : AC-3
Format/Info : Audio Coding 3
Mode extension : CM (complete main)
Format settings, Endianness : Big
Codec ID : A_AC3
Duration : 1h 45mn
Bit rate mode : Constant
Bit rate : 448 Kbps
Channel(s) : 6 channels
Channel positions : Front: L C R, Side: L R, LFE
Sampling rate : 48.0 KHz
Bit depth : 16 bits
Compression mode : Lossy
Stream size : 339 MiB (3%)
Title : R5
Language : Russian
Default : No
Forced : No
Audio #11
ID : 12
Format : AC-3
Format/Info : Audio Coding 3
Mode extension : CM (complete main)
Format settings, Endianness : Big
Codec ID : A_AC3
Duration : 1h 45mn
Bit rate mode : Constant
Bit rate : 448 Kbps
Channel(s) : 6 channels
Channel positions : Front: L C R, Side: L R, LFE
Sampling rate : 48.0 KHz
Bit depth : 16 bits
Compression mode : Lossy
Stream size : 339 MiB (3%)
Title : Двухголосый закадровый, 1+1
Language : Ukrainian
Default : No
Forced : No
Audio #12
ID : 13
Format : AC-3
Format/Info : Audio Coding 3
Mode extension : CM (complete main)
Format settings, Endianness : Big
Codec ID : A_AC3
Duration : 1h 45mn
Bit rate mode : Constant
Bit rate : 448 Kbps
Channel(s) : 6 channels
Channel positions : Front: L C R, Side: L R, LFE
Sampling rate : 48.0 KHz
Bit depth : 16 bits
Compression mode : Lossy
Stream size : 339 MiB (3%)
Title : (Двухголосый закадровый, Новый канал
Language : Ukrainian
Default : No
Forced : No
Audio #13
ID : 14
Format : AC-3
Format/Info : Audio Coding 3
Mode extension : CM (complete main)
Format settings, Endianness : Big
Codec ID : A_AC3
Duration : 1h 45mn
Bit rate mode : Constant
Bit rate : 640 Kbps
Channel(s) : 6 channels
Channel positions : Front: L C R, Side: L R, LFE
Sampling rate : 48.0 KHz
Bit depth : 16 bits
Compression mode : Lossy
Stream size : 484 MiB (5%)
Language : English
Default : No
Forced : No
Text #1
ID : 15
Format : UTF-8
Codec ID : S_TEXT/UTF8
Codec ID/Info : UTF-8 Plain Text
Title : R5
Language : Russian
Default : No
Forced : No
Text #2
ID : 16
Format : UTF-8
Codec ID : S_TEXT/UTF8
Codec ID/Info : UTF-8 Plain Text
Title : Киномания
Language : Russian
Default : No
Forced : No
Text #3
ID : 17
Format : UTF-8
Codec ID : S_TEXT/UTF8
Codec ID/Info : UTF-8 Plain Text
Title : vinalord
Language : Russian
Default : No
Forced : No
Text #4
ID : 18
Format : UTF-8
Codec ID : S_TEXT/UTF8
Codec ID/Info : UTF-8 Plain Text
Language : Russian
Default : No
Forced : No
Text #5
ID : 19
Format : UTF-8
Codec ID : S_TEXT/UTF8
Codec ID/Info : UTF-8 Plain Text
Title : for
Language : Russian
Default : Yes
Forced : No
Text #6
ID : 20
Format : UTF-8
Codec ID : S_TEXT/UTF8
Codec ID/Info : UTF-8 Plain Text
Language : Ukrainian
Default : No
Forced : No
Text #7
ID : 21
Format : UTF-8
Codec ID : S_TEXT/UTF8
Codec ID/Info : UTF-8 Plain Text
Language : English
Default : No
Forced : No
Menu
00:00:00.000 : en:00:00:00.000
00:00:50.676 : en:00:00:50.676
00:07:45.173 : en:00:07:45.173
00:12:32.377 : en:00:12:32.377
00:17:41.269 : en:00:17:41.269
00:24:36.517 : en:00:24:36.517
00:27:59.595 : en:00:27:59.595
00:33:34.054 : en:00:33:34.054
00:41:51.175 : en:00:41:51.175
00:46:55.354 : en:00:46:55.354
00:49:37.391 : en:00:49:37.391
00:54:11.290 : en:00:54:11.290
01:00:38.385 : en:01:00:38.385
01:05:30.468 : en:01:05:30.468
01:08:11.379 : en:01:08:11.379
01:14:34.970 : en:01:14:34.970
01:16:55.236 : en:01:16:55.236
01:20:10.139 : en:01:20:10.139
01:24:30.482 : en:01:24:30.482
01:26:04.284 : en:01:26:04.284
01:30:33.219 : en:01:30:33.219
01:35:42.195 : en:01:35:42.195
01:40:08.419 : en:01:40:08.419
01:42:36.609 : en:01:42:36.609

-
Релиз by delia
Скачать

Скачать торрент!

Как скачивать? · Что такое торрент? · Рейтинг и ограничения

Сайт не распространяет и не хранит электронные версии произведений, а лишь предоставляет доступ к создаваемому пользователями каталогу ссылок на торрент-файлы, которые содержат только списки хеш-сумм

[Профиль] [ЛС]
Показать сообщения:    
Ответить на тему

Текущее время: Сегодня 18:07

Часовой пояс: GMT + 4



Вы не можете начинать темы
Вы не можете отвечать на сообщения
Вы не можете редактировать свои сообщения
Вы не можете удалять свои сообщения
Вы не можете голосовать в опросах
Вы не можете прикреплять файлы к сообщениям
Вы не можете скачивать файлы