Работа в лесу! / Wood Job! (Ягути Синобу / Yaguchi Shinobu) [2014, Япония, комедия, DVDRip] Sub Rus

Ответить на тему
 
Автор Сообщение

user ®

Стаж: 13 лет

Сообщений: 15071

Пост Пост: #1 от 22-Янв-2015 22:06

[Цитировать]

Работа в лесу! / Wood Job!
Страна: Япония
Жанр: комедия
Год выпуска: 2014
Продолжительность: 01:56:06
Перевод: Субтитры
Cубтитры: русские
Оригинальная аудиодорожка: Японский
Режиссер: Ягути Синобу / Yaguchi Shinobu
В ролях:
Sometani Shota / Сометани Сёта - Hirano Yuki / Хирано Юки
Nagasawa Masami / Нагасава Масами - Ishii Naoki / Исии Наоки
Ito Hideaki / Ито Хидеаки - Iida Yoki / Иида Ёки
Yuka / Юка - Iida Miki / Иида Мики
Nishida Naomi / Нисида Наоми - Nakamura Yuko / Накамура Юко
Sports Makita / Спорц Макита - Tanabe Iwao / Танабэ Ивао
Arifuku Masashi / Арифуку Масаси - Oyama Saburo / Ояма Сабуро
Описание:Под сенью матери природы так сложно отыскать собственное я,
Но никогда не выбираем мы жизнь, что она дарит?©
Хирано Юки - городской мальчик до мозга костей. Живет себе припеваючи, пока в один прекрасный день не проваливает вступительные. А потом его еще и девушка бросает. Чем не повод напиться с друзьями? А в порыве чувств Юки может плюнуть на всю прошлую жизнь, и пойти работать в лес.
А что такого? Образование побоку, опыт не важен – желание есть, и нет проблем. Вот только поведясь на брошюру с красивой девчонкой, наш герой никак не ожидает, что работать придётся, да ещё в поте лица, дабы доказать, что ты не лыком шит. И ждут его приключения забавные и не очень. А что ещё может ждать неудачника, который умудрился утопить телефон в целлофановом пакете с водой, подвергнуться нападению пиявок и быть укушенным змеей в ухо? И вообще, если неприятности случиться могут - Юки они гарантированы. Валить лес и выжить! Любой ценой! ©Морриган
Перевод Funsub Kingdom Loli-Pop Stars!
Перевод - Каури
Координатор и редактор - Морриган
Доп. информация:
IMDB
Кинопоиск
Сэмпл
Качество видео: DVDRip
Формат видео: AVI
Видео: XviD, 720 x 384, 23 кадр/сек, 2393 Кбит/сек
Аудио: AC-3, 48 KHz, 192 Кбит/сек, 2 канала
Формат субтитров: softsub (SSA/ASS)
MediaInfo
Формат : AVI
Формат/Информация : Audio Video Interleave
Профиль формата : OpenDML
Размер файла : 2,10 Гбайт
Продолжительность : 1 ч. 56 м.
Общий поток : 2596 Кбит/сек
Программа кодирования : Lavf55.19.104
Видео
Идентификатор : 0
Формат : xvid
Идентификатор кодека : xvid
Продолжительность : 1 ч. 56 м.
Битрейт : 2393 Кбит/сек
Ширина : 720 пикселей
Высота : 384 пикселя
Соотношение сторон : 1,85:1
Частота кадров : 23,976 кадра/сек
Бит/(Пиксели*Кадры) : 0.361
Размер потока : 1,94 Гбайт (92%)
Заголовок : Encoded by zdzdz
Аудио
Идентификатор : 1
Формат : AC-3
Формат/Информация : Audio Coding 3
Расширение режима : CM (complete main)
Параметр Endianness формата : Big
Идентификатор кодека : 2000
Продолжительность : 1 ч. 56 м.
Вид битрейта : Постоянный
Битрейт : 192 Кбит/сек
Каналы : 2 канала
Расположение каналов : Front: L R
Частота : 48,0 КГц
Битовая глубина : 16 бит
Метод сжатия : С потерями
Размер потока : 159 Мбайт (7%)
Выравнивание : Соединение по промежуткам
Продолжительность промежутка : 32 мс. (0,77 видеокадр)
Заголовок : AC3
Скриншот c названием фильма Скриншоты Пример субтитров
Dialogue: 0,0:29:16.87,0:29:18.33,Default,,0000,0000,0000,,Снова она не в духе?
Dialogue: 0,0:29:20.04,0:29:23.30,Default,,0000,0000,0000,,Всегда такая. Отвалите уже.
Dialogue: 0,0:29:23.42,0:29:24.05,Default,,0000,0000,0000,,Снова?
Dialogue: 0,0:29:24.17,0:29:26.22,Default,,0000,0000,0000,,Эта та штучка из "Нью Йорка".
Dialogue: 0,0:29:26.38,0:29:28.05,Default,,0000,0000,0000,,До него никак не допетрит.
Dialogue: 0,0:29:28.22,0:29:32.81,Default,,0000,0000,0000,,Значит Мики раскусила, и прошлой ночью у вас было то ещё веселье, а?
Dialogue: 0,0:29:35.68,0:29:38.56,Default,,0000,0000,0000,,При сухих щепках и сырое дерево разгорается*.
Dialogue: 0,0:29:35.68,0:29:38.56,Пометки,,0000,0000,0000,,*Говорит на местном диалекте.
Dialogue: 0,0:29:38.73,0:29:39.81,Default,,0000,0000,0000,,Простите?
Dialogue: 0,0:29:39.98,0:29:41.81,Default,,0000,0000,0000,,Носом окуней ловишь?
Dialogue: 0,0:29:41.90,0:29:42.90,Default,,0000,0000,0000,,Чего?
Dialogue: 0,0:29:43.53,0:29:45.86,Default,,0000,0000,0000,,Как карта ляжет...
Dialogue: 0,0:29:47.07,0:29:51.45,Default,,0000,0000,0000,,Вы знаете эту девушку, Накамуру...
Dialogue: 0,0:29:52.41,0:29:54.58,Default,,0000,0000,0000,,А? Где?
Dialogue: 0,0:29:56.00,0:30:01.92,Default,,0000,0000,0000,,{\i1}Мы срубили деревья и за ужином пьём.{\i0}
Dialogue: 0,0:30:02.09,0:30:07.26,Default,,0000,0000,0000,,{\i1}Ужин для наших уставших сердец.{\i0}
Dialogue: 0,0:30:08.01,0:30:12.89,Default,,0000,0000,0000,,{\i1}И храпим,{\i0}
Dialogue: 0,0:30:12.93,0:30:17.35,Default,,0000,0000,0000,,{\i1}Как коровы...{\i0}
Dialogue: 0,0:30:24.11,0:30:27.57,Default,,0000,0000,0000,,Поэтому-то и скорей вернулся, пока он кровью не истёк.
Dialogue: 0,0:30:29.95,0:30:31.36,Default,,0000,0000,0000,,Восторг!
Dialogue: 0,0:30:33.28,0:30:37.04,Default,,0000,0000,0000,,Это же не тот олень с дороги, так ведь.
Dialogue: 0,0:30:37.12,0:30:40.29,Default,,0000,0000,0000,,Вот что случается, когда обгладываешь наши деревья!
Dialogue: 0,0:30:42.38,0:30:47.13,Default,,0000,0000,0000,,Не хочешь есть, так голодай на здоровье!
Dialogue: 0,0:30:56.14,0:30:58.43,Default,,0000,0000,0000,,Давайте-ка выпьем!
Dialogue: 0,0:31:02.69,0:31:04.98,Default,,0000,0000,0000,,Мне нельзя ещё...
Dialogue: 0,0:31:06.65,0:31:09.69,Default,,0000,0000,0000,,Так ты воспрянешь духом.
Dialogue: 0,0:31:09.85,0:31:10.90,Default,,0000,0000,0000,,Ешь давай.
Dialogue: 0,0:31:11.45,0:31:12.70,Default,,0000,0000,0000,,Ещё чего, и так мало.
Dialogue: 0,0:31:12.82,0:31:14.70,Default,,0000,0000,0000,,Да навалом ещё.
Dialogue: 0,0:31:14.83,0:31:18.29,Default,,0000,0000,0000,,Отдай ему своё, раз такой добренький.
Dialogue: 0,0:31:18.54,0:31:22.17,Default,,0000,0000,0000,,Всё ещё злишься? Я же извинился!
Dialogue: 0,0:31:22.67,0:31:26.96,Default,,0000,0000,0000,,Так ты серьёзно? Хочешь ребёнка или нет?!
Dialogue: 0,0:31:27.05,0:31:29.21,Default,,0000,0000,0000,,Кто сказал, что не хочу?
Dialogue: 0,0:31:29.88,0:31:31.63,Default,,0000,0000,0000,,Сдаюсь! Хватит с меня!
Dialogue: 0,0:31:32.01,0:31:33.51,Default,,0000,0000,0000,,{\i1\pos(350,63)}Диаграмма овуляции{\i0}
Dialogue: 0,0:31:39.18,0:31:41.68,Default,,0000,0000,0000,,Простите великодушно.
Dialogue: 0,0:31:42.02,0:31:44.81,Default,,0000,0000,0000,,Ах, эти зубы!
Dialogue: 0,0:31:44.86,0:31:49.61,Default,,0000,0000,0000,,Вставная челюсть сместилась.
Dialogue: 0,0:31:50.53,0:31:54.36,Default,,0000,0000,0000,,Чёртовы протезы! Никак не получается.
Dialogue: 0,0:32:55.22,0:32:57.22,Default,,0000,0000,0000,,Что я здесь забыл?
Скачать

Скачать торрент! Работа в лесу! / Wood Job! (Ягути Синобу / Yaguchi Shinobu) [2014, Япония, комедия, DVDRip] Sub Rus

Как скачивать? · Что такое торрент? · Рейтинг и ограничения

Сайт не распространяет и не хранит электронные версии произведений, а лишь предоставляет доступ к создаваемому пользователями каталогу ссылок на торрент-файлы, которые содержат только списки хеш-сумм

[Профиль] [ЛС]
Показать сообщения:    
Ответить на тему

Текущее время: Сегодня 12:16

Часовой пояс: GMT + 4



Вы не можете начинать темы
Вы не можете отвечать на сообщения
Вы не можете редактировать свои сообщения
Вы не можете удалять свои сообщения
Вы не можете голосовать в опросах
Вы не можете прикреплять файлы к сообщениям
Вы не можете скачивать файлы