Манджунатх / Manjunath (Сандип А. Варма / Sandeep A. Varma) [2014, Индия, Драма, SATRip] MVO (Zee Tv)

Ответить на тему
 
Автор Сообщение

user ®

Стаж: 12 лет

Сообщений: 15092

Пост Пост: #1 от 22-Янв-2015 22:06

[Цитировать]

Манджунатх / Manjunath
Страна: Индия
Жанр: Драма
Год выпуска: 2014
Продолжительность: 01:55:49
Перевод: Профессиональный (многоголосый закадровый) Zee Tv
Cубтитры: нет
Режиссер: Сандип А. Варма / Sandeep A. Varma
В ролях: Анджори Алагх, Асиф Басра, Сима Бисвас, Дивья Датта, Кишор Кадам, Раджеш Кхаттар, Файзал Рашид
Описание: Биографический фильм об обычном человеке, который в 2005 году, будучи выпускником института, работал в одной из ведущих нефтяных корпораций и был застрелен на работе.
Доп. информация: Релиз: Кинозал.ТВ
Запись фильма, риппер, удаление рекламы: oktober (Спасибо!)
Сэмпл: http://multi-up.com/1028156
Качество видео: SATRip
Формат видео: AVI
Видео: XviD MPEG-4, 640x320 (2.00:1), 25 fps, 1485 kbps avg
Аудио: MPEG Layer 3, 48 kHz, 2/0 (L,R) ch, 192.00 kbps avg
MediaInfo
General
Complete name : F:\Mandzhunath.2014.XviD.SATRip.Oktober.avi
Format : AVI
Format/Info : Audio Video Interleave
File size : 1.36 GiB
Duration : 1h 55mn
Overall bit rate : 1 687 Kbps
Writing application : VirtualDubMod 1.5.10.2 (build 2540/release)
Writing library : VirtualDubMod build 2540/release
Video
ID : 0
Format : MPEG-4 Visual
Format profile : Simple@L1
Format settings, BVOP : No
Format settings, QPel : No
Format settings, GMC : No warppoints
Format settings, Matrix : Default (H.263)
Codec ID : XVID
Codec ID/Hint : XviD
Duration : 1h 55mn
Bit rate : 1 485 Kbps
Width : 640 pixels
Height : 320 pixels
Display aspect ratio : 2.000
Frame rate : 25.000 fps
Resolution : 24 bits
Colorimetry : 4:2:0
Scan type : Progressive
Bits/(Pixel*Frame) : 0.290
Stream size : 1.20 GiB (88%)
Writing library : Lavc53.33.0
Audio
ID : 1
Format : MPEG Audio
Format version : Version 1
Format profile : Layer 3
Codec ID : 55
Codec ID/Hint : MP3
Duration : 1h 55mn
Bit rate mode : Constant
Bit rate : 192 Kbps
Channel(s) : 2 channels
Sampling rate : 48.0 KHz
Resolution : 16 bits
Stream size : 159 MiB (11%)
Alignment : Aligned on interleaves
Interleave, duration : 40 ms (1.00 video frame)
Interleave, preload duration : 504 ms
Writing library : LAME3.97
Скриншот c названием фильма Скриншоты
Скачать

Скачать торрент! Манджунатх / Manjunath (Сандип А. Варма / Sandeep A. Varma) [2014, Индия, Драма, SATRip] MVO (Zee Tv)

Как скачивать? · Что такое торрент? · Рейтинг и ограничения

Сайт не распространяет и не хранит электронные версии произведений, а лишь предоставляет доступ к создаваемому пользователями каталогу ссылок на торрент-файлы, которые содержат только списки хеш-сумм

[Профиль] [ЛС]
Показать сообщения:    
Ответить на тему

Текущее время: Сегодня 05:49

Часовой пояс: GMT + 4



Вы не можете начинать темы
Вы не можете отвечать на сообщения
Вы не можете редактировать свои сообщения
Вы не можете удалять свои сообщения
Вы не можете голосовать в опросах
Вы не можете прикреплять файлы к сообщениям
Вы не можете скачивать файлы