Сокровище нации / National Treasure (Джон Тёртелтауб / Jon Turteltaub) [2004, США, приключения, BDRemux 1080p] Dub (Невафильм) + 2 x DVO (Tycoon-Studio & Гланц & Королева) + 2 x AVO (Королев & Гаврилов) + Original Eng + Sub Rus, Eng

Ответить на тему
 
Автор Сообщение

user ®

Стаж: 7 лет 7 месяцев

Сообщений: 20008

Пост Пост: #1 от 21-Янв-2015 23:15

[Цитировать]

Сокровище нации / National Treasure«Эта тайна хранилась веками... Он думал, что почти разгадал её... Но она оказалась лишь еще одним звеном на пути к сокровищу» Страна: США
Студия: Walt Disney Pictures & Jerry Bruckheimer Films
Жанр: приключения
Год выпуска: 2004
Продолжительность: 2:11:04
Перевод 1: Профессиональный (дублированный) |Дубляж, Blu-ray CEE_[Невафильм]_2004г|
Перевод 2: Профессиональный (двухголосый, закадровый) |Tycoon-Studio|
Перевод 3: Профессиональный (двухголосый, закадровый) |Иващенко, Пётр Александрович_[Гланц]_ & Королева, Инна|
Перевод 4: Авторский (одноголосый закадровый) |Королев, Владимир|
Перевод 5: Авторский (одноголосый закадровый) |Гаврилов, Андрей Юрьевич|
Cубтитры: русские, английские
Оригинальная аудиодорожка: английский
Режиссер: Джон Тёртелтауб / Jon Turteltaub
В ролях: Николас Кейдж /Nicolas Cage, Дайан Крюгер /Diane Kruger, Джастин Барта /Justin Bartha, Шон Бин /Sean Bean, Джон Войт /Jon Voight, Харви Кейтель /Harvey Keitel, Кристофер Пламмер /Christopher Plummer, Дэвид Дайан Фишер /David Dayan Fisher, Стюарт Финлэй-МакЛеннан /Stewart Finlay-McLennan, Олег Тактаров /Oleg Taktarov.
Описание: Современные охотники за сокровищами во главе с Беном Франклином Гейтсом узнают старинную легенду о сокровище, спрятанном еще отцами-основателями американского государства Джорджем Вашингтоном, Бенджамином Франклином и Томасом Джефферсоном.
Узнать тайну клада можно с помощью Декларации Независимости США, в которой зашифрована разгадка. Но помимо разгадывания изощренной головоломки, нашим героям предстоит сразиться с любителями легкой наживы, жаждущим погреть руки на достоянии республики…
Сэмпл: https://yadi.sk/i/aZsde3TLe7kHu
Тип релиза: BDRemux 1080p
Контейнер: MKV
Видео: 1920x1080 at 23.976 fps, MPEG-4 AVC, ~22411 kbps avg
Аудио 1: Russian: 48 kHz, AC3, 3/2 (L,C,R,l,r) + LFE ch, ~640.00 kbps avg |Дубляж, Blu-ray CEE_[Невафильм]_2007г|
Аудио 2: Russian: 48 kHz, AC3, 3/2 (L,C,R,l,r) + LFE ch, ~448.00 kbps avg |Tycoon-Studio|
Аудио 3: Russian: 48 kHz/16-bit, DTS-HD MA 5.1, ~1938.00 kbps avg (DTS Core: 5.1 / 48 kHz / 768 kbps / 16-bit) |Иващенко, Пётр Александрович_[Гланц]_ & Королева, Инна|
Аудио 4: Russian: 48 kHz/16-bit, DTS-HD MA 5.1, ~1961.00 kbps avg (DTS Core: 5.1 / 48 kHz / 768 kbps / 16-bit) |Королев, Владимир|
Аудио 5: Russian: 48 kHz/16-bit, DTS-HD MA 5.1, ~2234.00 kbps avg (DTS Core: 5.1 / 48 kHz / 768 kbps / 16-bit) |Гаврилов, Андрей Юрьевич|
Аудио 6: English: 48 kHz/16-bit, DTS-HD MA 5.1, ~2258.00 kbps avg (DTS Core: 5.1 / 48 kHz / 1509 kbps / 16-bit) |ORIGINAL|
Аудио 7: English: 48 kHz, AC3, 2/0 (L,R) ch, ~192.00 kbps avg |Commentary with Director John Turtletaub and Actor Justin Bartha|
MediaInfo
Общее
Уникальный идентификатор : 248592402290541242652902145858625497363 (0xBB0527B8081E95CB9FB7372041E66913)
Полное имя : C:\V.S.P\MOVIE\Nicolas Cage_Nicolas Kim Coppola_\National Treasure_2004г\National Treasure_2004г_Nicolas Cage_[Nicolas Kim Coppola]_.mkv
Формат : Matroska
Версия формата : Version 4 / Version 2
Размер файла : 29,4 Гбайт
Продолжительность : 2 ч. 11 м.
Режим общего битрейта : Переменный
Общий поток : 32,1 Мбит/сек
Название фильма : National Treasure_2004г_Nicolas Cage_[Nicolas Kim Coppola]_
Дата кодирования : UTC 2015-01-19 17:54:59
Программа кодирования : mkvmerge v6.9.1 ('Blue Panther') 64bit built on Apr 18 2014 18:23:38
Библиотека кодирования : libebml v1.3.0 + libmatroska v1.4.1
Видео
Идентификатор : 1
Формат : AVC
Формат/Информация : Advanced Video Codec
Профиль формата : High@L4.1
Параметр CABAC формата : Да
Параметр ReFrames формата : 4 кадра
Идентификатор кодека : V_MPEG4/ISO/AVC
Продолжительность : 2 ч. 11 м.
Вид битрейта : Переменный
Максимальный битрейт : 33,5 Мбит/сек
Ширина : 1920 пикселей
Высота : 1080 пикселей
Соотношение сторон : 16:9
Режим частоты кадров : Постоянный
Частота кадров : 23,976 кадра/сек
Стандарт вещания : NTSC
Цветовое пространство : YUV
Субдискретизация насыщенности : 4:2:0
Битовая глубина : 8 бит
Тип развёртки : Прогрессивная
Заголовок : National Treasure_2004г_Nicolas Cage_[Nicolas Kim Coppola]_
Язык : English
Default : Да
Forced : Нет
Основные цвета : BT.709
Характеристики трансфера : BT.709
Коэффициенты матрицы : BT.709
Аудио #1
Идентификатор : 2
Формат : AC-3
Формат/Информация : Audio Coding 3
Расширение режима : CM (complete main)
Параметр Endianness формата : Big
Идентификатор кодека : A_AC3
Продолжительность : 2 ч. 11 м.
Вид битрейта : Постоянный
Битрейт : 640 Кбит/сек
Каналы : 6 каналов
Расположение каналов : Front: L C R, Side: L R, LFE
Частота : 48,0 КГц
Битовая глубина : 16 бит
Метод сжатия : С потерями
Размер потока : 600 Мбайт (2%)
Заголовок : |Дубляж, Blu-ray EUR_[Невафильм]_2004г|
Язык : Russian
Default : Да
Forced : Нет
Аудио #2
Идентификатор : 3
Формат : AC-3
Формат/Информация : Audio Coding 3
Расширение режима : CM (complete main)
Параметр Endianness формата : Big
Идентификатор кодека : A_AC3
Продолжительность : 2 ч. 11 м.
Вид битрейта : Постоянный
Битрейт : 448 Кбит/сек
Каналы : 6 каналов
Расположение каналов : Front: L C R, Side: L R, LFE
Частота : 48,0 КГц
Битовая глубина : 16 бит
Метод сжатия : С потерями
Размер потока : 420 Мбайт (1%)
Заголовок : |DVO_Tycoon-Studio|
Язык : Russian
Default : Нет
Forced : Нет
Аудио #3
Идентификатор : 4
Формат : DTS
Формат/Информация : Digital Theater Systems
Профиль формата : MA / Core
Режим : 16
Параметр Endianness формата : Big
Идентификатор кодека : A_DTS
Продолжительность : 2 ч. 11 м.
Вид битрейта : Переменный
Битрейт : Неизвестно / 768 Кбит/сек
Каналы : 6 каналов
Расположение каналов : Front: L C R, Side: L R, LFE
Частота : 48,0 КГц
Битовая глубина : 16 бит
Метод сжатия : Без потерь / Lossy
Заголовок : |Иващенко, Пётр Александрович_[Гланц]_ & Королева, Инна|
Язык : Russian
Default : Нет
Forced : Нет
Аудио #4
Идентификатор : 5
Формат : DTS
Формат/Информация : Digital Theater Systems
Профиль формата : MA / Core
Режим : 16
Параметр Endianness формата : Big
Идентификатор кодека : A_DTS
Продолжительность : 2 ч. 11 м.
Вид битрейта : Переменный
Битрейт : Неизвестно / 768 Кбит/сек
Каналы : 6 каналов
Расположение каналов : Front: L C R, Side: L R, LFE
Частота : 48,0 КГц
Битовая глубина : 16 бит
Метод сжатия : Без потерь / Lossy
Заголовок : |Королев, Владимир|
Язык : Russian
Default : Нет
Forced : Нет
Аудио #5
Идентификатор : 6
Формат : DTS
Формат/Информация : Digital Theater Systems
Профиль формата : MA / Core
Режим : 16
Параметр Endianness формата : Big
Идентификатор кодека : A_DTS
Продолжительность : 2 ч. 11 м.
Вид битрейта : Переменный
Битрейт : Неизвестно / 768 Кбит/сек
Каналы : 6 каналов
Расположение каналов : Front: L C R, Side: L R, LFE
Частота : 48,0 КГц
Битовая глубина : 16 бит
Метод сжатия : Без потерь / Lossy
Заголовок : |Гаврилов, Андрей Юрьевич|
Язык : Russian
Default : Нет
Forced : Нет
Аудио #6
Идентификатор : 7
Формат : DTS
Формат/Информация : Digital Theater Systems
Профиль формата : MA / Core
Режим : 16
Параметр Endianness формата : Big
Идентификатор кодека : A_DTS
Продолжительность : 2 ч. 11 м.
Вид битрейта : Переменный
Битрейт : Неизвестно / 1509 Кбит/сек
Каналы : 6 каналов
Расположение каналов : Front: L C R, Side: L R, LFE
Частота : 48,0 КГц
Битовая глубина : 16 бит
Метод сжатия : Без потерь / Lossy
Заголовок : |ORIGINAL|
Язык : English
Default : Нет
Forced : Нет
Аудио #7
Идентификатор : 8
Формат : AC-3
Формат/Информация : Audio Coding 3
Расширение режима : CM (complete main)
Параметр Endianness формата : Big
Идентификатор кодека : A_AC3
Продолжительность : 2 ч. 11 м.
Вид битрейта : Постоянный
Битрейт : 192 Кбит/сек
Каналы : 2 канала
Расположение каналов : Front: L R
Частота : 48,0 КГц
Битовая глубина : 16 бит
Метод сжатия : С потерями
Размер потока : 180 Мбайт (1%)
Заголовок : |Commentary with Director John Turtletaub and Actor Justin Bartha|
Язык : English
Default : Нет
Forced : Нет
Текст #1
Идентификатор : 9
Формат : UTF-8
Идентификатор кодека : S_TEXT/UTF8
Идентификатор кодека/Информация : UTF-8 Plain Text
Заголовок : forced
Язык : Russian
Default : Да
Forced : Нет
Текст #2
Идентификатор : 10
Формат : UTF-8
Идентификатор кодека : S_TEXT/UTF8
Идентификатор кодека/Информация : UTF-8 Plain Text
Заголовок : full
Язык : Russian
Default : Нет
Forced : Нет
Текст #3
Идентификатор : 11
Формат : UTF-8
Идентификатор кодека : S_TEXT/UTF8
Идентификатор кодека/Информация : UTF-8 Plain Text
Заголовок : commentary
Язык : Russian
Default : Нет
Forced : Нет
Текст #4
Идентификатор : 12
Формат : UTF-8
Идентификатор кодека : S_TEXT/UTF8
Идентификатор кодека/Информация : UTF-8 Plain Text
Заголовок : full
Язык : English
Default : Нет
Forced : Нет
Текст #5
Идентификатор : 13
Формат : UTF-8
Идентификатор кодека : S_TEXT/UTF8
Идентификатор кодека/Информация : UTF-8 Plain Text
Заголовок : SDH_full
Язык : English
Default : Нет
Forced : Нет
Меню
00:00:00.000 : :The Legend of the Treasure
00:06:36.229 : :The Charlotte
00:22:20.339 : :Meeting with Dr. Chase
00:28:52.063 : :Making a Plan
00:31:18.126 : :The Setup
00:35:47.311 : :The Gala
00:45:55.794 : :Getting Found Out
00:54:28.139 : :We Need Those Letters
01:01:07.872 : :Examining the Document
01:07:02.852 : :Philadelphia
01:16:54.192 : :The Ocular Device
01:24:06.041 : :Ian Has the Map
01:28:21.254 : :The Uss Intrepid
01:34:20.404 : :Making a Deal with Ian
01:38:31.572 : :Beneath Parkington Lane
01:49:42.158 : :Ian Leaves Them Behind
01:53:25.965 : :Could It Really Be That Simple?
01:57:22.035 : :Somebody Has to Go to Prison
02:01:42.795 : :End Credits
Скриншоты Цитата:
за исходник спасибо огромное хдклуб.за работу со звуком спасибо Bloodymetall.За предоставленный постер к раздаче спасибо огромное Нурмухаметову, Данису Василовичу.
Скачать

Скачать торрент!

Как скачивать? · Что такое торрент? · Рейтинг и ограничения

Сайт не распространяет и не хранит электронные версии произведений, а лишь предоставляет доступ к создаваемому пользователями каталогу ссылок на торрент-файлы, которые содержат только списки хеш-сумм

[Профиль] [ЛС]
Показать сообщения:    
Ответить на тему

Текущее время: Сегодня 05:54

Часовой пояс: GMT + 4



Вы не можете начинать темы
Вы не можете отвечать на сообщения
Вы не можете редактировать свои сообщения
Вы не можете удалять свои сообщения
Вы не можете голосовать в опросах
Вы не можете прикреплять файлы к сообщениям
Вы не можете скачивать файлы