Мама напрокат (Николай Михайлов) [2010, Комедия, мелодрама, HDTVRip]

Ответить на тему
 
Автор Сообщение

user ®

Стаж: 7 лет 7 месяцев

Сообщений: 20008

Пост Пост: #1 от 21-Янв-2015 23:15

[Цитировать]

Мама напрокат
Жанр: Комедия, мелодрама
Год выпуска: 2010
Продолжительность: 01:28:21
Режиссёр: Николай Михайлов
В ролях: Елена Панова, Илья Шакунов, Поля Полякова, Лариса Кадочникова, Майя Кузьмишина
Описание: Маленькая Соня живет с отцом и бабушкой. Мать давно бросила семью, уехав в Америку в поисках другой судьбы. Несмотря на то, что отец и бабушка очень любят Соню, девочка все-таки страстно мечтает о матери, чем очень огорчает отца, не верящего в порядочность женщин после поступка бывшей жены. Но он решает доказать и Соне, что мачеха — это не лучший выход из положения.
На трассе, по которой он часто проезжает работая дальнобойщиком, в третьеразрядном кафе он уговаривает (за хорошую плату) буфетчицу Тамару — грубую, давно махнувшую на себя рукой, женщину — пожить некоторое время в его доме в качестве предполагаемой мачехи, объяснив ей, что всеми силами она должна показать Соне, что страшнее мачехи ничего нет.
Бабушка Сони против затеи сына, но вынуждена согласиться. Сделав дело, он со спокойным сердцем уходит в очередной рейс, в надежде, что когда он вернется, проблема отпадет сама собой. Но Соня, еще верящая в сказки, решает, что Тамару можно «расколдовать» и та превратится в добрую и красивую маму…

Качество видео: HDTVRip [Исходник: HDTV (1080i)]
Формат видео: AVI
Видео: XviD, 656x368 (16:9), 1043 Кбит/с, 25 кадр/с
Аудио: Русский, MP3 48000 Гц, 128 Кбит/с, 2 канала (Стерео)

Автор рипа - ivandubskoj
MediaInfo
General
Complete name : Mama.naprokat.2010.HDTVRip.745MB.avi
Format : AVI
Format/Info : Audio Video Interleave
File size : 746 MiB
Duration : 1h 28mn
Overall bit rate : 1 181 Kbps
Writing application : VirtualDubMod 1.5.10.3 (build 2550/release)
Writing library : VirtualDubMod build 2550/release
Copyright : rip by ivandubskoj
Video
ID : 0
Format : MPEG-4 Visual
Format profile : Advanced Simple@L5
Format settings, BVOP : 2
Format settings, QPel : No
Format settings, GMC : No warppoints
Format settings, Matrix : Custom
Codec ID : XVID
Codec ID/Hint : XviD
Duration : 1h 28mn
Bit rate : 1 043 Kbps
Width : 656 pixels
Height : 368 pixels
Display aspect ratio : 16:9
Frame rate : 25.000 fps
Color space : YUV
Chroma subsampling : 4:2:0
Bit depth : 8 bits
Scan type : Progressive
Compression mode : Lossy
Bits/(Pixel*Frame) : 0.173
Stream size : 659 MiB (88%)
Writing library : XviD 73
Audio
ID : 1
Format : MPEG Audio
Format version : Version 1
Format profile : Layer 3
Codec ID : 55
Codec ID/Hint : MP3
Duration : 1h 28mn
Bit rate mode : Constant
Bit rate : 128 Kbps
Channel(s) : 2 channels
Sampling rate : 48.0 KHz
Compression mode : Lossy
Stream size : 80.9 MiB (11%)
Alignment : Aligned on interleaves
Interleave, duration : 40 ms (1.00 video frame)
Interleave, preload duration : 504 ms
Writing library : LAME3.99r
Encoding settings : -m s -V 4 -q 0 -lowpass 17 -b 128
Скриншот c названием фильма Скриншоты
Скачать

Скачать торрент!

Как скачивать? · Что такое торрент? · Рейтинг и ограничения

Сайт не распространяет и не хранит электронные версии произведений, а лишь предоставляет доступ к создаваемому пользователями каталогу ссылок на торрент-файлы, которые содержат только списки хеш-сумм

[Профиль] [ЛС]

rrtryytyew4

Стаж: 6 лет 1 месяц

Сообщений: 31

Пост Пост: #2 от 15-Фев-2015 21:23 (спустя 24 дня)

[Цитировать]

фильм на любителя
[Профиль] [ЛС]
Показать сообщения:    
Ответить на тему

Текущее время: Сегодня 07:56

Часовой пояс: GMT + 4



Вы не можете начинать темы
Вы не можете отвечать на сообщения
Вы не можете редактировать свои сообщения
Вы не можете удалять свои сообщения
Вы не можете голосовать в опросах
Вы не можете прикреплять файлы к сообщениям
Вы не можете скачивать файлы