Жемчужина Нила / The Jewel of the Nile (Льюис Тиг / Lewis Teague) [1985 г., США, Боевик, мелодрама, комедия, приключения, BDRip 720p] 4x MVO + DVO + AVO + Sub Rus, Ukr, Eng + Original Eng

Ответить на тему
 
Автор Сообщение

user ®

Стаж: 7 лет 7 месяцев

Сообщений: 20008

Пост Пост: #1 от 20-Янв-2015 19:06

[Цитировать]

Жемчужина Нила / The Jewel of the Nile
«They're back again...and romancing a brand new stone»

Год выпуска: 1985
Страна: США
Студия: SLM Production Group, Stone Group Pictures, Twentieth Century Fox Film Corporation
Жанр: Боевик, мелодрама, комедия, приключения
Продолжительность: 01:45:55
Перевод 1: Профессиональный (многоголосый закадровый) - R5
Перевод 2: Профессиональный (двухголосый закадровый) - Позитив-Мультимедиа
Перевод 3: Профессиональный (многоголосый закадровый) - Киномания
Перевод 4: Профессиональный (многоголосый закадровый) - Премьер Видео Фильм
Перевод 5: Профессиональный (многоголосый закадровый) - Лазер Видео
Перевод 6: Авторский (одноголосый закадровый) - Гаврилов
Субтитры: русские, украинские, английские
Оригинальная аудиодорожка: английский
Режиссер: Льюис Тиг / Lewis Teague
В ролях: Майкл Дуглас, Кэтлин Тернер, Дэнни ДеВито, Spiros Focás, Avner Eisenberg, Пол Дэвид Магид, Ховард Джей Паттерсон, Рэндолл Эдвин Нельсон, Сэмюэл Росс Уильямс, Тимоти Дэниэл Ферст
Описание: Герои предыдущей части Джэк и Джоан живут спокойной, размеренной жизнью богатых бездельников. У них есть все, что могут позволить деньги: яхта, виллы, прислуга. Но им скучно.
Скучно друг с другом, и этим обществом. Чтобы развлечь себя, Джоан принимает приглашение арабского шейха посетить его восточную резиденцию. Но сказка обернулась кошмаром: арабский красавец похищает Джоан и требует выкуп — «жемчужину».
Джэк, заручившись поддержкой своего нового партнера Ральфа, принимает непростое решение — спасти Джоан. Но есть одно осложнение, Джэку хочет отомстить старый напарник.
Доп. информация:

Качество: BDRip 720p
Формат: MKV
Видео кодек: MPEG4 AVC
Аудио кодек: DTS, AC3, AAC
Видео: 1280x546, 16:9, 23.976 fps, x264@L4.1, ~8675 Kbps
Аудио №1: Русский Dolby Digital Audio 5.1, 48 kHz, 16 bit, ~448 kbps – профессиональный (многоголосый закадровый) |R5|
Аудио №2: Русский Dolby Digital Audio 2.0, 48 kHz, 16 bit, ~192 kbps – профессиональный (двухголосый закадровый) |Позитив-Мультимедиа|
Аудио №3: Русский Dolby Digital Audio 5.1, 48 kHz, 24 bit, ~448 kbps – профессиональный (многоголосый закадровый) |Киномания|
Аудио №4: Русский Dolby Digital Audio 2.0, 48 kHz, 16 bit, ~224 kbps – профессиональный (многоголосый закадровый) |Премьер Видео Фильм|
Аудио №5: Русский Dolby Digital Audio 2.0, 48 kHz, 16 bit, ~224 kbps – профессиональный (многоголосый закадровый) |Лазер Видео|
Аудио №6: Русский DTS Audio 5.1, 48 kHz, 24 bit, ~768 kbps – авторский (одноголосый закадровый) |Андрей Гаврилов|
Аудио №7: Украинский Dolby Digital Audio 5.1, 48 kHz, ~448 kbps – профессиональный (двухголосый закадровый) |1+1|
Аудио №8: Украинский Dolby Digital Audio 5.1, 48 kHz, ~448 kbps – профессиональный (двухголосый закадровый) |Новый канал|
Аудио №9: Английский Dolby Digital Audio 5.1, 48 kHz, 16 bit, ~640 kbps
Аудио №10: Английский Advanced Audio Codec 2.0, 48 kHz, ~82 kbps - |Комментарии режиссера Льюиса Тига|
Субтитры: Русские, украинские, английские
-
Знаете ли вы, что...
  • Майкл Дуглас и Кэтлин Тёрнер без большой охоты приняли участие в создании сиквела. На стадии пре-продакшна актриса даже пыталась выйти из проекта, но из-за угрозы иска со стороны студии и 25-миллионных финансовых санкций была вынуждена остаться.
  • За две недели до начала съёмок художник-постановщик Ричард Докинг и менеджер по производству Брайан Коутс разбились на самолёте в Марокко во время поисков подходящих локаций для съёмочной группы.
  • Новелизация фильма была выпущена в США от имени Джоанн Уайлдер.
  • Актёры Майкл Дуглас, Кэтлин Тёрнер и Дэнни ДеВито снялись в музыкальном видеоклипе песни «When the Going Gets Tough, the Tough Get Going» Билли Оушена, которая звучит в титрах фильма. Из-за того, что актёры не были членами музыкального профсоюза, видеоклип был запрещён к показу в Великобритании.
  • Арабов Арака, Барака, Сарака, Карака и Тарака сыграли члены американской жонглёрской труппы «Летающие братья Карамазовы».
    ...из книги «3500 кинорецензий»
Приключенческая комедия
На волне успеха фильма «Роман с камнем» американский актёр и продюсер Майкл Даглас тут же решил снять вторую серию о приключениях наивной писательницы Джоан Уайлдер и искателя удачи Джека Колтона. Теперь они попадают в пустыню в северной Африке, что ещё сильнее подчёркивает вторичность этой кинодилогии по отношению к ленте «Искатели потерянного ковчега» Стивена Спилберга. Но если Роберт Земекис, принадлежащий к школе лидера суперзрелищного кино, всё-таки сумел сохранить в «Романе с камнем» иронический стиль повествования и действия как бы понарошку, то менее способный Льюис Тиг практически провалил свою картину «Жемчужина Нила», сделав тяжеловесную, натужную приключенческую комедию.
Между прочим, Даглас ссылался на трудные обстоятельства съёмок, а также на то, что фильм «не задался» с самого начала. Но основной просчёт заключался в том, что механически перенеся героев из предыдущей ленты, авторы второй серии на сей раз вообще не осмыслили идею двойственности существования основных персонажей между вымыслом и реальностью. Больше всего пострадал образ Джоан, который был низведён до уровня сочинённых ею самой для невзыскательной публики книжных опусов. Тем не менее, «Жемчужина Нила» пользовалась почти идентичным успехом, как и «Роман с камнем».
Информация
  • Рип от SbR
  • Сохранены оригинальные чаптеры как на Blu-ray.
  • Дорожка Андрея Гаврилова собрана с чистого голоса из личного архива автора (не тот хлам, что гуляет по сети с шумами).
    Сэмпл
Скриншоты MediaInfo
General
Unique ID : 218405643778262957296493341484884827605 (0xA44F659DB365E921BAE211FED5461DD5)
Complete name : The Jewel of the Nile [Жемчужина Нила].mkv
Format : Matroska
Format version : Version 4 / Version 2
File size : 9.31 GiB
Duration : 1h 45mn
Overall bit rate : 12.6 Mbps
Encoded date : UTC 2015-01-17 08:09:34
Writing application : mkvmerge v6.8.0 ('Theme for Great Cities') 32bit built on Mar 2 2014 21:27:07
Writing library : libebml v1.3.0 + libmatroska v1.4.1
Attachements : cover.jpg
Video
ID : 1
Format : AVC
Format/Info : Advanced Video Codec
Format profile : High@L4.1
Format settings, CABAC : Yes
Format settings, ReFrames : 11 frames
Codec ID : V_MPEG4/ISO/AVC
Duration : 1h 45mn
Width : 1 280 pixels
Height : 546 pixels
Display aspect ratio : 2.35:1
Frame rate mode : Constant
Frame rate : 23.976 fps
Color space : YUV
Chroma subsampling : 4:2:0
Bit depth : 8 bits
Scan type : Progressive
Writing library : x264 core 144 r2525kMod 40bb568
Encoding settings : cabac=1 / ref=11 / deblock=1:-3:-3 / analyse=0x3:0x133 / me=tesa / subme=10 / psy=1 / fade_compensate=0.00 / psy_rd=1.05:0.05 / mixed_ref=1 / me_range=24 / chroma_me=1 / trellis=2 / 8x8dct=1 / cqm=0 / deadzone=21,11 / fast_pskip=0 / chroma_qp_offset=-3 / threads=6 / lookahead_threads=1 / sliced_threads=0 / nr=0 / decimate=1 / interlaced=0 / bluray_compat=0 / constrained_intra=0 / fgo=0 / bframes=12 / b_pyramid=2 / b_adapt=2 / b_bias=0 / direct=3 / weightb=1 / open_gop=0 / weightp=2 / keyint=250 / keyint_min=23 / scenecut=40 / intra_refresh=0 / rc_lookahead=60 / rc=crf / mbtree=0 / crf=17.7500 / qcomp=0.68 / qpmin=0 / qpmax=69 / qpstep=4 / vbv_maxrate=62500 / vbv_bufsize=78125 / crf_max=0.0 / nal_hrd=none / filler=0 / ip_ratio=1.30 / pb_ratio=1.20 / aq=1:0.80
Language : English
Default : Yes
Forced : No
Matrix coefficients : BT.709
Color range : Limited
Audio #1
ID : 2
Format : AC-3
Format/Info : Audio Coding 3
Mode extension : CM (complete main)
Format settings, Endianness : Big
Codec ID : A_AC3
Duration : 1h 45mn
Bit rate mode : Constant
Bit rate : 448 Kbps
Channel(s) : 6 channels
Channel positions : Front: L C R, Side: L R, LFE
Sampling rate : 48.0 KHz
Bit depth : 16 bits
Compression mode : Lossy
Stream size : 339 MiB (4%)
Title : Многоголосый закадровый, R5
Language : Russian
Default : Yes
Forced : No
Audio #2
ID : 3
Format : AC-3
Format/Info : Audio Coding 3
Mode extension : CM (complete main)
Format settings, Endianness : Big
Codec ID : A_AC3
Duration : 1h 45mn
Bit rate mode : Constant
Bit rate : 192 Kbps
Channel(s) : 2 channels
Channel positions : Front: L R
Sampling rate : 48.0 KHz
Bit depth : 16 bits
Compression mode : Lossy
Stream size : 145 MiB (2%)
Title : Двухголосый закадровый, Позитив-Мультимедиа
Language : Russian
Default : No
Forced : No
Audio #3
ID : 4
Format : AC-3
Format/Info : Audio Coding 3
Mode extension : CM (complete main)
Format settings, Endianness : Big
Codec ID : A_AC3
Duration : 1h 45mn
Bit rate mode : Constant
Bit rate : 448 Kbps
Channel(s) : 6 channels
Channel positions : Front: L C R, Side: L R, LFE
Sampling rate : 48.0 KHz
Bit depth : 16 bits
Compression mode : Lossy
Stream size : 339 MiB (4%)
Title : Многоголосый закадровый, Киномания
Language : Russian
Default : No
Forced : No
Audio #4
ID : 5
Format : AC-3
Format/Info : Audio Coding 3
Mode extension : CM (complete main)
Format settings, Endianness : Big
Codec ID : A_AC3
Duration : 1h 45mn
Bit rate mode : Constant
Bit rate : 224 Kbps
Channel(s) : 2 channels
Channel positions : Front: L R
Sampling rate : 48.0 KHz
Bit depth : 16 bits
Compression mode : Lossy
Stream size : 170 MiB (2%)
Title : Многоголосый закадровый, Премьер Видео Фильм
Language : Russian
Default : No
Forced : No
Audio #5
ID : 6
Format : AC-3
Format/Info : Audio Coding 3
Mode extension : CM (complete main)
Format settings, Endianness : Big
Codec ID : A_AC3
Duration : 1h 45mn
Bit rate mode : Constant
Bit rate : 224 Kbps
Channel(s) : 2 channels
Channel positions : Front: L R
Sampling rate : 48.0 KHz
Bit depth : 16 bits
Compression mode : Lossy
Stream size : 170 MiB (2%)
Title : Многоголосый закадровый, Лазер Видео
Language : Russian
Default : No
Forced : No
Audio #6
ID : 7
Format : DTS
Format/Info : Digital Theater Systems
Mode : 16
Format settings, Endianness : Big
Codec ID : A_DTS
Duration : 1h 45mn
Bit rate mode : Constant
Bit rate : 755 Kbps
Channel(s) : 6 channels
Channel positions : Front: L C R, Side: L R, LFE
Sampling rate : 48.0 KHz
Bit depth : 24 bits
Compression mode : Lossy
Stream size : 572 MiB (6%)
Title : Одноголосый закадровый, А.Гаврилов
Language : Russian
Default : No
Forced : No
Audio #7
ID : 8
Format : AC-3
Format/Info : Audio Coding 3
Mode extension : CM (complete main)
Format settings, Endianness : Big
Codec ID : A_AC3
Duration : 1h 45mn
Bit rate mode : Constant
Bit rate : 448 Kbps
Channel(s) : 6 channels
Channel positions : Front: L C R, Side: L R, LFE
Sampling rate : 48.0 KHz
Bit depth : 16 bits
Compression mode : Lossy
Stream size : 339 MiB (4%)
Title : Двухголосый закадровый, 1+1
Language : Ukrainian
Default : No
Forced : No
Audio #8
ID : 9
Format : AC-3
Format/Info : Audio Coding 3
Mode extension : CM (complete main)
Format settings, Endianness : Big
Codec ID : A_AC3
Duration : 1h 45mn
Bit rate mode : Constant
Bit rate : 448 Kbps
Channel(s) : 6 channels
Channel positions : Front: L C R, Side: L R, LFE
Sampling rate : 48.0 KHz
Bit depth : 16 bits
Compression mode : Lossy
Stream size : 339 MiB (4%)
Title : Двухголосый закадровый, Новый канал
Language : Ukrainian
Default : No
Forced : No
Audio #9
ID : 10
Format : AC-3
Format/Info : Audio Coding 3
Mode extension : CM (complete main)
Format settings, Endianness : Big
Codec ID : A_AC3
Duration : 1h 45mn
Bit rate mode : Constant
Bit rate : 640 Kbps
Channel(s) : 6 channels
Channel positions : Front: L C R, Side: L R, LFE
Sampling rate : 48.0 KHz
Bit depth : 16 bits
Compression mode : Lossy
Stream size : 485 MiB (5%)
Language : English
Default : No
Forced : No
Audio #10
ID : 11
Format : AAC
Format/Info : Advanced Audio Codec
Format profile : LC
Codec ID : A_AAC
Duration : 1h 45mn
Channel(s) : 2 channels
Channel positions : Front: L R
Sampling rate : 48.0 KHz
Compression mode : Lossy
Delay relative to video : 9ms
Title : комментарий
Language : English
Default : No
Forced : No
Text #1
ID : 12
Format : UTF-8
Codec ID : S_TEXT/UTF8
Codec ID/Info : UTF-8 Plain Text
Title : R5
Language : Russian
Default : No
Forced : No
Text #2
ID : 13
Format : UTF-8
Codec ID : S_TEXT/UTF8
Codec ID/Info : UTF-8 Plain Text
Title : Киномания
Language : Russian
Default : No
Forced : No
Text #3
ID : 14
Format : UTF-8
Codec ID : S_TEXT/UTF8
Codec ID/Info : UTF-8 Plain Text
Title : vinalord
Language : Russian
Default : No
Forced : No
Text #4
ID : 15
Format : UTF-8
Codec ID : S_TEXT/UTF8
Codec ID/Info : UTF-8 Plain Text
Language : Ukrainian
Default : No
Forced : No
Text #5
ID : 16
Format : UTF-8
Codec ID : S_TEXT/UTF8
Codec ID/Info : UTF-8 Plain Text
Language : English
Default : No
Forced : No
Menu
00:00:00.000 : en:00:00:00.000
00:03:45.434 : en:00:03:45.434
00:08:13.660 : en:00:08:13.660
00:11:28.521 : en:00:11:28.521
00:16:02.545 : en:00:16:02.545
00:19:47.395 : en:00:19:47.395
00:23:47.760 : en:00:23:47.760
00:24:49.279 : en:00:24:49.279
00:26:57.908 : en:00:26:57.908
00:30:26.867 : en:00:30:26.867
00:37:09.352 : en:00:37:09.352
00:44:07.144 : en:00:44:07.144
00:52:43.994 : en:00:52:43.994
00:57:07.758 : en:00:57:07.758
01:02:13.563 : en:01:02:13.563
01:08:39.782 : en:01:08:39.782
01:10:45.158 : en:01:10:45.158
01:13:48.090 : en:01:13:48.090
01:16:12.401 : en:01:16:12.401
01:23:52.736 : en:01:23:52.736
01:26:17.422 : en:01:26:17.422
01:29:53.555 : en:01:29:53.555
01:34:08.685 : en:01:34:08.685
01:40:50.336 : en:01:40:50.336

-
Релиз by delia
Скачать

Скачать торрент!

Как скачивать? · Что такое торрент? · Рейтинг и ограничения

Сайт не распространяет и не хранит электронные версии произведений, а лишь предоставляет доступ к создаваемому пользователями каталогу ссылок на торрент-файлы, которые содержат только списки хеш-сумм

[Профиль] [ЛС]
Показать сообщения:    
Ответить на тему

Текущее время: Сегодня 12:53

Часовой пояс: GMT + 4



Вы не можете начинать темы
Вы не можете отвечать на сообщения
Вы не можете редактировать свои сообщения
Вы не можете удалять свои сообщения
Вы не можете голосовать в опросах
Вы не можете прикреплять файлы к сообщениям
Вы не можете скачивать файлы